Ссылка на приватное зеркало нашего сайта всего за 1$. Внимание количество ограничено!!!

2 сезон

iTunes

1 сезон

1

iTunes

iTunes

iTunes

1 сезон

RePack

30

ИГРА 18+

pack

ВАЖНО

!!Акция!!

Alien_RageХит недели

RePack

MK11
pack

Забери бонус

RePack

jed

!!Акция!!

Alien_Rage

RePack

fifa19

RePack

Assassins Creed: Odyssey

RePack

NEED FOR SPEED™ PAYBACK

4 сезон

9 сезон

Бесстыжие 9 сезон

Все сериалы

все сериалы на PB.wtf

RePack

FAR CRY 5
  

Чернобыль. Зона отчуждения / Сезон 2 / Серии 1-8 из 8 (Павел Костомаров) [2017, Мистический триллер, SATRip] pb.wtf

Чернобыль. Зона отчуждения через торрент pb.wtf

Размер: 4.51 GB | Добавлен: 2 года 10 мес. назад | Торрент скачан:733 раза
Скачать  

17-11-2017 19:44 Чернобыль. Зона отчуждения Скачать торрент  

Чернобыль. Зона отчуждения
Год выпуска: 2017
Страна: Россия
Жанр: Мистический триллер
Продолжительность: 8 х ~ 00:39:00
Перевод: Не требуется
Субтитры: отсутствуют

Режиссер: Павел Костомаров



В ролях:

Кристина Казинская, Анвар Халилулаев, Сергей Романович, Валерия Дмитриева, Константин Давыдов, Евгений Стычкин, Юрий Скулябин

Описание:

Действие разворачивается в США, где в результате взрыва на атомной станции образовалась гигантская Зона отчуждения, заселённая бандитами - государство при этом погрузилось в хаос гражданской войны. Перед всеми, кто попадает на эту территорию, встает вопрос жизни и смерти – или вопрос борьбы за личную свободу против диктатуры насилия.

Качество: SATRip
Формат: AVI
Видео кодек: XviD
Аудио кодек: MP3

Видео: 704x320 at 25.000 fps, XviD, ~1600 kbps avg
Аудио#1: 48 kHz, MP3, 2/0 (L,R) ch, ~192 kbps avg
скриншот   скриншот   скриншот   скриншот  

Общее
Полное имя : D:\Chernobyl.Zona.otchuzhdeniya.S02.SATRip.25Kuzmich\Chernobyl.Zona.otchuzhdeniya.s02.e01.XviD.SATRip.25Kuzmich.avi
Формат : AVI
Формат/Информация : Audio Video Interleave
Размер файла : 512 Мбайт
Продолжительность : 38 м. 40 с.
Общий поток : 1850 Кбит/сек
Программа кодирования : VirtualDubMod 1.5.10.3 (build 2550/release)
Библиотека кодирования : VirtualDubMod build 2550/release

Видео
Идентификатор : 0
Формат : MPEG-4 Visual
Профиль формата : Advanced Simple@L5
Параметр BVOP формата : 2
Параметр QPel формата : Нет
Параметр GMC формата : Без точки перехода
Параметр матрицы формата : Default (MPEG)
Идентификатор кодека : XVID
Идентификатор кодека/Подсказка : XviD
Продолжительность : 38 м. 40 с.
Битрейт : 1648 Кбит/сек
Ширина : 704 пикселя
Высота : 320 пикселей
Соотношение сторон : 2,2:1
Частота кадров : 25,000 кадров/сек
Цветовое пространство : YUV
Субдискретизация насыщенности : 4:2:0
Битовая глубина : 8 бит
Тип развёртки : Прогрессивная
Метод сжатия : С потерями
Бит/(Пиксели*Кадры) : 0.293
Размер потока : 456 Мбайт (89%)
Библиотека кодирования : XviD 1.2.1 (UTC 2008-12-04)

Аудио
Идентификатор : 1
Формат : MPEG Audio
Версия формата : Version 1
Профиль формата : Layer 3
Режим : Joint stereo
Идентификатор кодека : 55
Идентификатор кодека/Подсказка : MP3
Продолжительность : 38 м. 40 с.
Вид битрейта : Постоянный
Битрейт : 192 Кбит/сек
Каналы : 2 канала
Частота : 48,0 КГц
Метод сжатия : С потерями
Размер потока : 53,1 Мбайт (10%)
Выравнивание : Соединение по промежуткам
Продолжительность промежутка : 40 мс. (1,00 видеокадр)
Время предзагрузки промежутка : 504 мс.
Библиотека кодирования : LAME3.99r
Настройки программы : -m j -V 4 -q 0 -lowpass 18.6 -b 192

Когда раздача ведётся путём добавления новых серий, при каждом добавлении создётся новый торрент. Чтобы начать докачку новой серии, пользователям необходимо сделать следующее:
(1) остановить скачивание,
(2) удалить старый торрент у себя из клиента (старые серии удалять не надо),
(3) скачать новый торрент и запустить его у себя в клиенте вместо старого, при этом указать клиенту путь в старую папку, куда и должно происходить скачивание новых серий.
Ваш клиент при этом должен произвести хеширование (проверку) старой папки (если не производит сам - помогите ему сделать это), и будет докачивать только те серии, которых у вас ещё нет. Старые серии при этом не удаляются, а продолжают раздаваться!

Eсли вы уже удалили старые серии, то предотвратить повторную закачку старых серий можно, отжав галочку в соответсвующих местах при запуске нового торрента. По возможности, желательно не удалять старые серии как можно дольше, чтобы релизер не столько продолжал раздавать старые серии, а смог сконцентрироваться на новых.
pb.wtf



Скачать Чернобыль. Зона отчуждения через торрент http://i1.imageban.ru/out/2017/11/10/2eb0c9202e4dcbabb54f58332014d4c3.png Скачать фильм Чернобыль. Зона отчуждения через торрент бесплантно в хорошем качестве Описание: Действие разворачивается в США, где в результате взрыва на атомной станции образовалась гигантская Зона отчуждения, заселённая ... 9.7 10 30
Info! Золотая раздача, скачанное не засчитывается.
Торрент: Зарегистрирован [2017-12-02 01:30] · скачан: 733 раз
Статус: √ проверено
Размер: 4.51 GB
Как cкачать? Как скачать Чернобыль. Зона отчуждения через торрент | qTorrent

% Раздел Тема Автор DL S | L
Наши сериалы [ 8.99 GB ] Чернобыль. Зона отчуждения / Сезон 2 / Серии 1-8 из 8 [2017 Мистический WEBRip 720p] bober100 Скачать
3 | 0
Наши сериалы [ 4.6 GB ] Чернобыль. Зона отчуждения / Сезон 2 / Серии 1-8 из 8 [2017 Мистический WEBRip] bober100 Скачать
1 | 0


Последний раз редактировалось: bober100 (2017-12-02 01:30), всего редактировалось 2 раз(а)

28-11-2019 20:33  

Отключить всю рекламу на сайте

19-11-2017 19:34 Чернобыль. Зона отчуждения Скачать торрент  

ну наконец-то дождались, спасибо!pb.wtf



20-11-2017 21:19 Чернобыль. Зона отчуждения Скачать торрент  

Посмотрел 10 минут 1-й серии. Первая мысль - WTF? Что за неадекватные фантазии?!
Потом втянулся. Понравилась фантазия...
БАЦ! Главному герою - не понравилось.
Тут я расстроился, понимая, что весь сериал будет проходить в теме борьбы подростка за возвращение в развалившуюся Родину. Себя спасать надо, главное - себя! Насрать на миллионы счастливых советских граждан.
P.S. Обратная сторона Луны 2. Там они эту тему интереснее обыграли.
З.Ы. Удалю позже коммент, т.к. он не адекватен.pb.wtf



    Дорогой пользователь! Огромная просьба, поблагодарите релизера, оцените раздачу и оставьте свои комментарий, если Вы скачали Чернобыль. Зона отчуждения через торрент бесплатно! Внесите свою лепту в развитие PiratBit!
    Комментировать посты могут только пользователи прошедшие не сложную регистрацию
    Показать сообщения:    

    Чернобыль. Зона отчуждения через торрент
    Скачать бесплатно Чернобыль. Зона отчуждения
    Чернобыль. Зона отчуждения скачать торрент
    Чернобыль. Зона отчуждения смотреть онлайн
    Cкачать фильм Чернобыль. Зона отчуждения бесплатно
    Чернобыль. Зона отчуждения скачать торрент в хорошем качестве
    Чернобыль. Зона отчуждения смотреть онлайн бесплатно в хорошем качестве


    Вы не можете начинать темы
    Вы не можете отвечать на сообщения
    Вы не можете редактировать свои сообщения
    Вы не можете удалять свои сообщения
    Вы не можете голосовать в опросах
    Вы не можете прикреплять файлы к сообщениям
    Вы можете скачивать файлы