Ссылка на приватное зеркало нашего сайта всего за 1$. Внимание количество ограничено!!!

2 сезон

iTunes

1 сезон

1

iTunes

iTunes

iTunes

1 сезон

RePack

30

ИГРА 18+

pack

ВАЖНО

!!Акция!!

Alien_RageХит недели

RePack

MK11
pack

Забери бонус

RePack

jed

!!Акция!!

Alien_Rage

RePack

fifa19

RePack

Assassins Creed: Odyssey

RePack

NEED FOR SPEED™ PAYBACK

4 сезон

9 сезон

Бесстыжие 9 сезон

Все сериалы

все сериалы на PB.wtf

RePack

FAR CRY 5
  

Фантомы / Shutter (Масаюки Очиай) [2008, ужасы, триллер, детектив, BDRip 1080p by msltel] DUB, MVO pb.wtf

Фантомы через торрент pb.wtf

Размер: 13.6 GB | Добавлен: 2 года 11 мес. назад | Торрент скачан:90 раз
Скачать  

18-11-2017 06:14 Фантомы Скачать торрент  

Название: Фантомы
Оригинальное название: Shutter
Год выпуска: 2008
Страна: США
Жанр: ужасы, триллер, детектив
Продолжительность: 01:29:37
Перевод: дублированный, профессиональный многоголосый

Режиссер: Масаюки Очиай
В ролях: Джошуа Джексон, Рэйчел Тейлор, Мегуми Окина, Дэвид Денман, Джон Хенсли, Майя Хазен, Джеймс Кайсон Ли, Йошико Миязаки, Кеи Ямамото, Дэйзи Беттс, Эдрианн Пикеринг

О фильме: Проявляя фотографии после несчастного случая пара молодоженов обнаруживает на них пугающие призрачные фигуры. Опасаясь, что всё это может быть взаимосвязано, супруги пытаются выяснить природу этих явлений и понимают, что лучше бы они не лезли в эти тайны...



Качество: BDRip 1080p
Формат: MKV
Видео: MPEG-4 AVC, 19.3 Mбит/с, 1920x1040, 23.976 кадр/с
Аудио 1: русский, DTS, 768 kbps, 6 ch, 48 kHz [дублированный]
Аудио 2: русский, AC3, 192 kbps, 2 ch, 48 kHz [профессиональный многоголосый]
Аудио 3: английский, DTS, 1509 kbps, 6 ch, 48 kHz [оригинал]
Субтитры 1: русские (вариант 1)
Субтитры 2: русские (вариант 2)
Субтитры 3: английские
Неименованные главы/чаптеры.
Общее
Уникальный идентификатор : 243201623247704554044519798406332340669 (0xB6F6EDCAA996E8A9B24EE35467B0D9BD)
Полное имя : D:\Video\Фантомы.2008.BDRip.1080p by msltel.mkv
Формат : Matroska
Версия формата : Version 4 / Version 2
Размер файла : 13,6 Гбайт
Продолжительность : 1 ч. 29 м.
Общий поток : 21,7 Мбит/сек
Название фильма : Rip by msltel
Дата кодирования : UTC 2017-11-17 15:48:32
Программа кодирования : mkvmerge v8.2.0 ('World of Adventure') 64bit
Библиотека кодирования : libebml v1.3.1 + libmatroska v1.4.2

Видео
Идентификатор : 1
Формат : AVC
Формат/Информация : Advanced Video Codec
Профиль формата : High@L4.1
Настройки формата : CABAC / 4 Ref Frames
Параметр CABAC формата : Да
Параметр RefFrames формата : 4 кадра
Идентификатор кодека : V_MPEG4/ISO/AVC
Продолжительность : 1 ч. 29 м.
Битрейт : 19,3 Мбит/сек
Ширина : 1920 пикселей
Высота : 1040 пикселей
Соотношение сторон : 1,85:1
Режим частоты кадров : Постоянный
Частота кадров : 23,976 (24000/1001) кадра/сек
Цветовое пространство : YUV
Субдискретизация насыщенности : 4:2:0
Битовая глубина : 8 бит
Тип развёртки : Прогрессивная
Бит/(Пиксели*Кадры) : 0.402
Размер потока : 12,1 Гбайт (89%)
Библиотека кодирования : x264 core 146 r2538 121396c
Настройки программы : cabac=1 / ref=4 / deblock=1:-3:-2 / analyse=0x3:0x113 / me=umh / subme=11 / psy=1 / psy_rd=1.00:0.15 / mixed_ref=1 / me_range=32 / chroma_me=1 / trellis=2 / 8x8dct=1 / cqm=0 / deadzone=21,11 / fast_pskip=0 / chroma_qp_offset=-3 / threads=6 / lookahead_threads=1 / sliced_threads=0 / nr=0 / decimate=1 / interlaced=0 / bluray_compat=0 / constrained_intra=0 / bframes=8 / b_pyramid=2 / b_adapt=2 / b_bias=0 / direct=1 / weightb=1 / open_gop=0 / weightp=2 / keyint=230 / keyint_min=23 / scenecut=40 / intra_refresh=0 / rc_lookahead=40 / rc=crf / mbtree=0 / crf=20.8 / qcomp=0.60 / qpmin=0 / qpmax=69 / qpstep=4 / vbv_maxrate=62500 / vbv_bufsize=78125 / crf_max=0.0 / nal_hrd=none / filler=0 / ip_ratio=1.40 / pb_ratio=1.30 / aq=1:1.00
Язык : English
Default : Да
Forced : Нет

Аудио #1
Идентификатор : 2
Формат : DTS
Формат/Информация : Digital Theater Systems
Идентификатор кодека : A_DTS
Продолжительность : 1 ч. 29 м.
Вид битрейта : Постоянный
Битрейт : 768 Кбит/сек
Каналы : 6 каналов
Расположение каналов : Front: L C R, Side: L R, LFE
Частота : 48,0 КГц
Частота кадров : 93,750 кадра/сек (512 SPF)
Битовая глубина : 24 бит
Метод сжатия : С потерями
Размер потока : 492 Мбайт (4%)
Заголовок : DUB
Язык : Russian
Default : Да
Forced : Нет

Аудио #2
Идентификатор : 3
Формат : AC-3
Формат/Информация : Audio Coding 3
Идентификатор кодека : A_AC3
Продолжительность : 1 ч. 29 м.
Вид битрейта : Постоянный
Битрейт : 192 Кбит/сек
Каналы : 2 канала
Расположение каналов : Front: L R
Частота : 48,0 КГц
Частота кадров : 31,250 кадров/сек (1536 SPF)
Битовая глубина : 16 бит
Метод сжатия : С потерями
Размер потока : 123 Мбайт (1%)
Заголовок : MVO
Язык : Russian
ServiceKind/String : Complete Main
Default : Нет
Forced : Нет

Аудио #3
Идентификатор : 4
Формат : DTS
Формат/Информация : Digital Theater Systems
Идентификатор кодека : A_DTS
Продолжительность : 1 ч. 29 м.
Вид битрейта : Постоянный
Битрейт : 1509 Кбит/сек
Каналы : 6 каналов
Расположение каналов : Front: L C R, Side: L R, LFE
Частота : 48,0 КГц
Частота кадров : 93,750 кадра/сек (512 SPF)
Битовая глубина : 24 бит
Метод сжатия : С потерями
Размер потока : 967 Мбайт (7%)
Заголовок : original
Язык : English
Default : Нет
Forced : Нет

Текст #1
Идентификатор : 5
Формат : UTF-8
Идентификатор кодека : S_TEXT/UTF8
Идентификатор кодека/Информация : UTF-8 Plain Text
Продолжительность : 1 ч. 21 м.
Битрейт : 41 бит/сек
ElementCount : 662
Размер потока : 24,8 Кбайт (0%)
Заголовок : русские вариант 1
Язык : Russian
Default : Нет
Forced : Нет

Текст #2
Идентификатор : 6
Формат : UTF-8
Идентификатор кодека : S_TEXT/UTF8
Идентификатор кодека/Информация : UTF-8 Plain Text
Продолжительность : 1 ч. 22 м.
Битрейт : 47 бит/сек
ElementCount : 678
Размер потока : 28,6 Кбайт (0%)
Заголовок : русские вариант 2
Язык : Russian
Default : Нет
Forced : Нет

Текст #3
Идентификатор : 7
Формат : UTF-8
Идентификатор кодека : S_TEXT/UTF8
Идентификатор кодека/Информация : UTF-8 Plain Text
Продолжительность : 1 ч. 22 м.
Битрейт : 34 бит/сек
ElementCount : 670
Размер потока : 20,8 Кбайт (0%)
Заголовок : английские
Язык : English
Default : Нет
Forced : Нет

Меню
00:00:00.000 : :Chapter 01
00:04:03.200 : :Chapter 02
00:06:02.403 : :Chapter 03
00:09:03.960 : :Chapter 04
00:13:08.537 : :Chapter 05
00:16:34.826 : :Chapter 06
00:22:28.012 : :Chapter 07
00:27:24.683 : :Chapter 08
00:28:49.268 : :Chapter 09
00:33:31.009 : :Chapter 10
00:38:39.817 : :Chapter 11
00:42:10.402 : :Chapter 12
00:47:12.036 : :Chapter 13
00:49:10.237 : :Chapter 14
00:52:42.701 : :Chapter 15
00:56:21.126 : :Chapter 16
00:58:14.449 : :Chapter 17
01:03:19.378 : :Chapter 18
01:09:44.387 : :Chapter 19
01:11:21.443 : :Chapter 20
01:17:03.533 : :Chapter 21
01:19:55.289 : :Chapter 22
01:21:18.162 : :Chapter 23
01:24:40.283 : :Chapter 24
01:29:37.412 : :Chapter 25
pb.wtf



Скачать Фантомы через торрент http://s012.radikal.ru/i319/1711/c1/d45bb03bb836.jpg Скачать фильм Фантомы через торрент бесплантно в хорошем качестве О фильме: Проявляя фотографии после несчастного случая пара молодоженов обнаруживает на них пугающие призрачные фигуры. Опасаясь, что всё ... 10 10 7
Info! Золотая раздача, скачанное не засчитывается.
Торрент: Зарегистрирован [2017-11-18 06:14] · скачан: 90 раз
Статус: √ проверено
Размер: 13.6 GB
Как cкачать? Как скачать Фантомы через торрент | qTorrent

% Раздел Тема Автор DL S | L
Фильмы [HD 720p, 1080p] (Хороший звук DUB, MVO) [ 4.71 GB ] Фантомы / Shutter [2008 BDRip 720p by msltel] DUB MVO msltel Скачать
1 | 0

28-11-2019 20:33  

Отключить всю рекламу на сайте

    Дорогой пользователь! Огромная просьба, поблагодарите релизера, оцените раздачу и оставьте свои комментарий, если Вы скачали Фантомы через торрент бесплатно! Внесите свою лепту в развитие PiratBit!
    Комментировать посты могут только пользователи прошедшие не сложную регистрацию
    Показать сообщения:    

    Фантомы через торрент
    Скачать бесплатно Фантомы
    Фантомы скачать торрент
    Фантомы смотреть онлайн
    Cкачать фильм Фантомы бесплатно
    Фантомы скачать торрент в хорошем качестве
    Фантомы смотреть онлайн бесплатно в хорошем качестве


    Вы не можете начинать темы
    Вы не можете отвечать на сообщения
    Вы не можете редактировать свои сообщения
    Вы не можете удалять свои сообщения
    Вы не можете голосовать в опросах
    Вы не можете прикреплять файлы к сообщениям
    Вы можете скачивать файлы