Доктор Стрэндж

Лицензия

Добыча

Дубляж

Дом дракона

1 сезон

Тор

Дубляж

В эфире

Дубляж

Там, где раки поют

MVO

Властелин колец

1 сезон

GLOBAL

pack

Рекомендуем

30

Пиратка

ВАЖНО

ВАЖНО

Ghostwire

Пиратка

jed

RePack

nioh2

RePack

RDR2

RePack

NEED FOR SPEED™ PAYBACK

RePack

скачать торрент

Кинопоиск HD

Острые козырьки 6 сезон

6 сезон

FAR CRY 6

RePack

скачать торрент

Лицензия

скачать торрент

MVO

1

1 сезон

скачать торрент

1 сезон

скачать торрент

Лицензия

  

Дочь моего босса / My Boss's Daughter (Дэвид Цукер) [2003, мелодрама, комедия, BDRip 1080p ] Дубляж, MVO

Дочь моего босса через торрент pb.wtf

Качают: 1 [ 0 KB/s ]
Размер: 8.9 GB | Добавлен: 5 лет назад | Торрент скачан:73 раза
Смотреть онлайн | Скачать   

18-11-2017 07:29 Дочь моего босса Скачать торрент  

Название: Дочь моего босса
Оригинальное название: My Boss's Daughter
Год выпуска: 2003
Страна: США
Жанр: мелодрама, комедия
Продолжительность: 01:30:07
Перевод: дублированный, профессиональный многоголосый

Режиссер: Дэвид Цукер
В ролях: Эштон Кутчер, Тара Рейд, Теренс Стэмп, Молли Шеннон, Джон Абрахамс, Энди Рихтер, Тайлер Лэбин, Майкл Мэдсен, Патрик Крэншо, Дэвид Кёкнер, Рон Селмур, Кенан Томпсон, Джеффри Тэмбор, Эвер Кэррадайн, Тим Генри, Дэйв Фоли, Анджела Литтл, Кармен Электра, Джим Бёрнс, Линк Бэйкер, Сьюзен Бреслау, Бетти Линде, Генри Мах

Описание: Строгий начальник просит своего безотказного молодого сотрудника присмотреть за его домом в течение одного вечера. Добросовестный парнишка вынужден согласиться. К тому же, ему очень нравится симпатичная дочка босса. Но в эту сумасшедшую ночь улетает любимый филин босса, ради присмотра за которым, в первую очередь, и был вызван герой; дом атакуют незваные гости, и, наконец, на огонёк заглядывает некий злобный гангстер, превращая этот балаган в настоящий хаос…



Качество: BDRip 1080p
Формат: MKV
Видео: MPEG-4 AVC, 13 Mбит/с, 1920x1080, 23.976 кадр/с
Аудио 1: русский, AC3, 384 kbps, 6 ch [дублированный]
Аудио 2: русский, AC3, 384 kbps, 6 ch [профессиональный многоголосый]
Аудио 3: английский, AC3, 384 kbps, 6 ch, 48 kHz [оригинал]
Субтитры 1: русские
Субтитры 2: английские
Неименованные главы/чаптеры.
Общее
Уникальный идентификатор : 202980392441977786028057837412228572972 (0x98B49A01FB79224EB9EA5366D9CCA72C)
Полное имя : D:\Video\Дочь моего босса.2003.BDRip.1080p by msltel.mkv
Формат : Matroska
Версия формата : Version 4 / Version 2
Размер файла : 8,90 Гбайт
Продолжительность : 1 ч. 30 м.
Общий поток : 14,1 Мбит/сек
Название фильма : Rip by msltel
Дата кодирования : UTC 2017-11-18 03:38:05
Программа кодирования : mkvmerge v8.2.0 ('World of Adventure') 64bit
Библиотека кодирования : libebml v1.3.1 + libmatroska v1.4.2

Видео
Идентификатор : 1
Формат : AVC
Формат/Информация : Advanced Video Codec
Профиль формата : [email protected]
Настройки формата : CABAC / 4 Ref Frames
Параметр CABAC формата : Да
Параметр RefFrames формата : 4 кадра
Идентификатор кодека : V_MPEG4/ISO/AVC
Продолжительность : 1 ч. 30 м.
Битрейт : 13,0 Мбит/сек
Ширина : 1920 пикселей
Высота : 1080 пикселей
Соотношение сторон : 16:9
Режим частоты кадров : Постоянный
Частота кадров : 23,976 (24000/1001) кадра/сек
Цветовое пространство : YUV
Субдискретизация насыщенности : 4:2:0
Битовая глубина : 8 бит
Тип развёртки : Прогрессивная
Бит/(Пиксели*Кадры) : 0.261
Размер потока : 8,17 Гбайт (92%)
Библиотека кодирования : x264 core 146 r2538 121396c
Настройки программы : cabac=1 / ref=4 / deblock=1:-3:-2 / analyse=0x3:0x113 / me=umh / subme=11 / psy=1 / psy_rd=1.00:0.15 / mixed_ref=1 / me_range=32 / chroma_me=1 / trellis=2 / 8x8dct=1 / cqm=0 / deadzone=21,11 / fast_pskip=0 / chroma_qp_offset=-3 / threads=6 / lookahead_threads=1 / sliced_threads=0 / nr=0 / decimate=1 / interlaced=0 / bluray_compat=0 / constrained_intra=0 / bframes=8 / b_pyramid=2 / b_adapt=2 / b_bias=0 / direct=1 / weightb=1 / open_gop=0 / weightp=2 / keyint=230 / keyint_min=23 / scenecut=40 / intra_refresh=0 / rc_lookahead=40 / rc=crf / mbtree=0 / crf=18.0 / qcomp=0.60 / qpmin=0 / qpmax=69 / qpstep=4 / vbv_maxrate=62500 / vbv_bufsize=78125 / crf_max=0.0 / nal_hrd=none / filler=0 / ip_ratio=1.40 / pb_ratio=1.30 / aq=1:1.00
Язык : English
Default : Да
Forced : Нет

Аудио #1
Идентификатор : 2
Формат : AC-3
Формат/Информация : Audio Coding 3
Идентификатор кодека : A_AC3
Продолжительность : 1 ч. 29 м.
Вид битрейта : Постоянный
Битрейт : 384 Кбит/сек
Каналы : 6 каналов
Расположение каналов : Front: L C R, Side: L R, LFE
Частота : 48,0 КГц
Частота кадров : 31,250 кадров/сек (1536 SPF)
Битовая глубина : 16 бит
Метод сжатия : С потерями
Размер потока : 247 Мбайт (3%)
Заголовок : Дубляж
Язык : Russian
ServiceKind/String : Complete Main
Default : Да
Forced : Нет

Аудио #2
Идентификатор : 3
Формат : AC-3
Формат/Информация : Audio Coding 3
Идентификатор кодека : A_AC3
Продолжительность : 1 ч. 30 м.
Вид битрейта : Постоянный
Битрейт : 384 Кбит/сек
Каналы : 6 каналов
Расположение каналов : Front: L C R, Side: L R, LFE
Частота : 48,0 КГц
Частота кадров : 31,250 кадров/сек (1536 SPF)
Битовая глубина : 16 бит
Метод сжатия : С потерями
Размер потока : 248 Мбайт (3%)
Заголовок : MVO
Язык : Russian
ServiceKind/String : Complete Main
Default : Нет
Forced : Нет

Аудио #3
Идентификатор : 4
Формат : AC-3
Формат/Информация : Audio Coding 3
Идентификатор кодека : A_AC3
Продолжительность : 1 ч. 30 м.
Вид битрейта : Постоянный
Битрейт : 384 Кбит/сек
Каналы : 6 каналов
Расположение каналов : Front: L C R, Side: L R, LFE
Частота : 48,0 КГц
Частота кадров : 31,250 кадров/сек (1536 SPF)
Битовая глубина : 16 бит
Метод сжатия : С потерями
Размер потока : 248 Мбайт (3%)
Заголовок : original
Язык : English
ServiceKind/String : Complete Main
Default : Нет
Forced : Нет

Текст #1
Идентификатор : 5
Формат : UTF-8
Идентификатор кодека : S_TEXT/UTF8
Идентификатор кодека/Информация : UTF-8 Plain Text
Продолжительность : 1 ч. 29 м.
Битрейт : 121 бит/сек
ElementCount : 1178
Размер потока : 79,7 Кбайт (0%)
Заголовок : русские
Язык : Russian
Default : Нет
Forced : Нет

Текст #2
Идентификатор : 6
Формат : UTF-8
Идентификатор кодека : S_TEXT/UTF8
Идентификатор кодека/Информация : UTF-8 Plain Text
Продолжительность : 1 ч. 29 м.
Битрейт : 85 бит/сек
ElementCount : 1329
Размер потока : 56,1 Кбайт (0%)
Заголовок : английские
Язык : English
Default : Нет
Forced : Нет

Меню
00:00:00.000 : en:
00:04:03.243 : en:
00:11:18.636 : en:
00:16:10.970 : en:
00:28:01.680 : en:
00:32:47.924 : en:
00:38:10.288 : en:
00:43:22.600 : en:
00:48:35.746 : en:
00:53:35.546 : en:
01:00:15.070 : en:
01:07:01.017 : en:
01:12:28.344 : en:
01:16:50.856 : en:
01:19:25.719 : en:



Скачать Дочь моего босса через торрент http://s011.radikal.ru/i316/1711/27/732293e9db0e.jpg Скачать, смотреть онлайн Дочь моего босса бесплантно в хорошем качестве Описание: Строгий начальник просит своего безотказного молодого сотрудника присмотреть за его домом в течение одного вечера. Добросовестный ... 9.3 10 3
Info! Золотая раздача, скачанное не засчитывается.
Торрент: Зарегистрирован [2017-11-18 07:29] · скачан: 73 раз
Статус: √ проверено
Размер: 8.9 GB
Как cкачать? Как скачать Дочь моего босса через торрент | UTorrent

28-11-2019 20:33  


Отключить вcю реклaмy на сайте, в т.ч. и в плеере онлайн просмотра!

    Дорогой пользователь! Огромная просьба, поблагодарите релизера, оцените раздачу и оставьте свои комментарий, если Вы скачали Дочь моего босса через торрент бесплатно!!
    Комментировать посты могут только пользователи прошедшие не сложную регистрацию
    Показать сообщения:    


    Дочь моего босса через торрент
    Скачать бесплатно Дочь моего босса
    Дочь моего босса скачать торрент
    Дочь моего босса смотреть онлайн
    Cкачать фильм Дочь моего босса бесплатно
    Дочь моего босса скачать торрент в хорошем качестве
    Дочь моего босса смотреть онлайн бесплатно в хорошем качестве
    Вы не можете начинать темы
    Вы не можете отвечать на сообщения
    Вы не можете редактировать свои сообщения
    Вы не можете удалять свои сообщения
    Вы не можете голосовать в опросах
    Вы не можете прикреплять файлы к сообщениям
    Вы можете скачивать файлы
    Дочь моего босса / My Boss's Daughter [2003, мелодрама, комедия, BDRip 1080p ] Дубляж, MVO смотреть онлайн, скачать торрент picoco.icu