2 сезон

iTunes

MVO

1

2 сезон

iTunes

iTunes

1 сезон

RePack

30

Ultimate

ВАЖНО

ИГРА 18+

pack

RePack

MK11
pack

Легкие деньги

RePack

jed

RePack

fifa19

RePack

RDR2

RePack

NEED FOR SPEED™ PAYBACK

4 сезон

9 сезон

Бесстыжие 9 сезон

Все сериалы

все сериалы на PB.wtf

RePack

FAR CRY 5

Anonymous, доброй ночи, мы не успеваем собрать деньги на оплату серверов за декабрь и январь, помогите нам пожалуйста в это трудное время. В качестве благодарности мы отключим Вам всю рекламу на сайте (укажите свой ник в строку Ваше имя)!

×
  
Magnet ссылка

Проклятие Аннабель: Зарождение зла / Annabelle: Creation (Дэвид Ф. Сандберг) [2017 г., Ужасы, триллер, детектив, HDRip, Дубляж "BD EUR"] pb.wtf

Проклятие Аннабель: Зарождение зла через торрент pb.wtf

Размер: 2.17 GB | Добавлен: 3 года 2 мес. назад | Торрент скачан:54 раза
Скачать  

18-11-2017 13:24 Проклятие Аннабель: Зарождение зла Скачать торрент  

Проклятие Аннабель: Зарождение зла / Annabelle: Creation
Год выпуска: 2017
Страна: СШA / Atomic Monster, New Line Cinema, RatPac-Dune Entertainment
Жанр: Ужасы, триллер, детектив
Продолжительность: 01:49:42
Перевод: Дубляж (BD EUR)
Субтитры: Русские форсированные - вшитые

Режиссер: Дэвид Ф. Сандберг

rating

В ролях: Стефани Сигман, Миранда Отто, Лулу Уилсон, Энтони ЛаПалья, Талита Бейтман, Алисия Вела-Бэйли, Керри О Мэлли, Филиппа Култхард, Джозеф Бишара, Адам Бартли

Описание: Кукольный мастер, чья единственная дочь трагически погибла 20 лет назад, вместе с женой решают открыть двери своего дома для монахини и нескольких девочек из закрытого сиротского приюта. Но одержимое создание кукольника – Аннабель – пристально наблюдает за детьми и вскоре накрывает их убежище ураганом ужаса и страха.

Качество: HDRip
Формат: AVI
Видео кодек: XviD
Аудио кодек: AC3
Видео: 720x304 (2.37:1), 23.976 fps, XviD build 50 ~2375 kbps avg, 0.45 bit/pixel
Аудио: 48 kHz, AC3 Dolby Digital, 3/2 (L,C,R,l,r) + LFE ch, ~448 kbps
скриншот   скриншот   скриншот   скриншот  

Общее
Полное имя : F:\ФИЛЬМЫ\Проклятие Аннабель-Зарождение зла.2017.HDRip.avi
Формат : AVI
Формат/Информация : Audio Video Interleave
Профиль формата : OpenDML
Размер файла : 2,17 Гбайт
Продолжительность : 1 ч. 49 м.
Общий поток : 2830 Кбит/сек
Программа кодирования : VirtualDubMod 1.5.10.3 | www.virtualdub-fr.org || (build 2550/release)
Библиотека кодирования : VirtualDubMod build 2550/release

Видео
Идентификатор : 0
Формат : MPEG-4 Visual
Профиль формата : Advanced Simple@L5
Настройки формата : BVOP1
Параметр BVOP формата : 1
Параметр QPel формата : Нет
Параметр GMC формата : Без точки перехода
Параметр матрицы формата : Default (MPEG)
Идентификатор кодека : XVID
Идентификатор кодека/Подсказка : XviD
Продолжительность : 1 ч. 49 м.
Битрейт : 2370 Кбит/сек
Ширина : 720 пикселей
Высота : 304 пикселя
Соотношение сторон : 2,35:1
Частота кадров : 23,976 (24000/1001) кадра/сек
Цветовое пространство : YUV
Субдискретизация насыщенности : 4:2:0
Битовая глубина : 8 бит
Тип развёртки : Прогрессивная
Метод сжатия : С потерями
Бит/(Пиксели*Кадры) : 0.452
Размер потока : 1,82 Гбайт (84%)
Библиотека кодирования : XviD 1.2.1 (UTC 2008-12-04)

Аудио
Идентификатор : 1
Формат : AC-3
Формат/Информация : Audio Coding 3
Идентификатор кодека : 2000
Продолжительность : 1 ч. 49 м.
Вид битрейта : Постоянный
Битрейт : 448 Кбит/сек
Каналы : 6 каналов
Расположение каналов : Front: L C R, Side: L R, LFE
Частота : 48,0 КГц
Частота кадров : 31,250 кадров/сек (1536 SPF)
Битовая глубина : 16 бит
Метод сжатия : С потерями
Размер потока : 352 Мбайт (16%)
Выравнивание : Разделение по промежуткам
Продолжительность промежутка : 42 мс. (1,00 видеокадр)
Время предзагрузки промежутка : 500 мс.
ServiceKind/String : Complete Main

pb.wtf



Скачать Проклятие Аннабель: Зарождение зла через торрент http://pic1.kartinco.top/images/11/s3a94.jpg Скачать фильм Проклятие Аннабель: Зарождение зла через торрент бесплантно в хорошем качестве Описание: Кукольный мастер, чья единственная дочь трагически погибла 20 лет назад, вместе с женой решают открыть двери своего дома для ... 10 10 2
Торрент: Зарегистрирован [2017-11-18 13:24] · скачан: 54 раз
Статус: √ проверено
Размер: 2.17 GB
Как cкачать? Как скачать Проклятие Аннабель: Зарождение зла через торрент | UTorrent

% Раздел Тема Автор DL S | L
T Фильмы (HD 720p, 1080p) (48-60 fps) [ 18.26 GB ] Проклятие Аннабель: Зарождение зла / Annabelle: Creation [2017 BDRip 1080p 60 fps] sheker187 Скачать
1 | 1
Фильмы (Blu-ray, BD-Remux, HDDVD) [ 24.54 GB ] Проклятие Аннабель: Зарождение зла / Annabelle: Creation [2017 BD Remux 1080p] DUB [] bober100 Скачать
1 | 0
Фильмы [HD 720p, 1080p] (Хороший звук DUB, MVO) [ 2.87 GB ] Проклятие Аннабель: Зарождение зла / Annabelle: Creation [2017 BDRip 720p] sokol_ok Скачать
1 | 0
Фильмы 2017 [DVDrip, WEB-DLRip, HDrip] (DUB, MVO) [ 746 MB ] Проклятие Аннабель: Зарождение зла / Annabelle: Creation [2017 BDRip-AVC] sokol_ok Скачать
2 | 0
Фильмы 2017 [DVDrip, WEB-DLRip, HDrip] (DUB, MVO) [ 1.48 GB ] Проклятие Аннабель: Зарождение зла / Annabelle: Creation [2017 BDRip-AVC] sokol_ok Скачать
2 | 0
Видео для КПК и Смартфонов [ 420 MB ] Проклятие Аннабель: Зарождение зла / Annabelle: Creation [2017 HDRip КПК] DUB [] bober100 Скачать
1 | 0
Фильмы 2017 [DVDrip, WEB-DLRip, HDrip] (DUB, MVO) [ 1.46 GB ] Проклятие Аннабель: Зарождение зла / Annabelle: Creation [2017 BDRip] - [] Twi7ter Скачать
1 | 0

28-11-2019 20:33  

Отключить всю рекламу на сайте

    Дорогой пользователь! Огромная просьба, поблагодарите релизера, оцените раздачу и оставьте свои комментарий, если Вы скачали Проклятие Аннабель: Зарождение зла через торрент бесплатно! Внесите свою лепту в развитие PiratBit!
    Комментировать посты могут только пользователи прошедшие не сложную регистрацию
    Показать сообщения:    

    Проклятие Аннабель: Зарождение зла через торрент
    Скачать бесплатно Проклятие Аннабель: Зарождение зла
    Проклятие Аннабель: Зарождение зла скачать торрент
    Проклятие Аннабель: Зарождение зла смотреть онлайн
    Cкачать фильм Проклятие Аннабель: Зарождение зла бесплатно
    Проклятие Аннабель: Зарождение зла скачать торрент в хорошем качестве
    Проклятие Аннабель: Зарождение зла смотреть онлайн бесплатно в хорошем качестве


    Вы не можете начинать темы
    Вы не можете отвечать на сообщения
    Вы не можете редактировать свои сообщения
    Вы не можете удалять свои сообщения
    Вы не можете голосовать в опросах
    Вы не можете прикреплять файлы к сообщениям
    Вы можете скачивать файлы