новый адрес пиратбит piratbit
Мега распродажа FORZA HORIZON 4 ULTIMATE+ВСЕ DLC+ОНЛАЙН всего за 499р. 349 руб. (супер цена). Внимание количество ограничено!!!

iTunes

1+1

iTunes

мы

iTunes

1

iTunes

Чернобыль

iTunes

Ральф против интернета

Лицензия

ПШазам

Лицензия

Игра престолов

Лицензия

30
pack

ВАЖНО

!!Акция!!

Alien_RageХит недели

RePack

Resident Evil 21

ИГРА 18+

pack

RePack

Metro:Exodus

!!Акция!!

Alien_Rage

RePack

fifa19

RePack

Assassins Creed: Odyssey

RePack

NEED FOR SPEED™ PAYBACK

3 сезон

9 сезон

Бесстыжие 9 сезон

Все сериалы

все сериалы на PB.wtf

RePack

FAR CRY 5
Ребята, катастрофически не хватает 1900р. для оплаты серверов за Октябрь (всвязи с блокировками трафик упал в 3 раза), 1-2р., выручайте.
  

Насреддин в Ходженте, или Очарованный принц (Амо Бек-Назаров, Эразм Карамян) [1959, СССР, приключения, комедия, DVDRip от AVP Studio] pb.wtf

Насреддин в Ходженте, или Очарованный принц через торрент pb.wtf

Размер: 1.09 GB | Добавлен: 1 год 11 мес. назад | Торрент скачан:19 раз
Скачать  

18-11-2017 14:14 Насреддин в Ходженте, или Очарованный принц Скачать торрент  

Насреддин в Ходженте, или Очарованный принц
Страна: СССР
Производство: Таджикфильм

Жанр: приключения, комедия
Год выпуска: 1959
Продолжительность: 01:34:55

Перевод: Не требуется
Cубтитры: нет
Оригинальная аудиодорожка: русский

Режиссер: Амо Бек-Назаров, Эразм Карамян

В ролях:
Гурген Тонунц, Мухаммеджан Касымов, Марат Арипов, Шамси Джураев, Сталина Азаматова, Саидмурад Саидмурадов, Абдульхайр Касымов, Тахир Сабиров, Дильбар Касымова, Борис Шлихтинг...
Об актёрах подробней

Описание:
По мотивам повести Л.Соловьёва «Очарованный принц».
…Колоритен древний восточный город Ходжент. В пышном дворце эмира собрались разодетые вельможи. Сегодня большой праздник у владыки: возмутитель спокойствия Насреддин схвачен и казнён. Никто теперь не помешает владыке грабить и притеснять народ. Но напрасно радуются богачи. Насреддин жив, он «воскрес» из мёртвых и вернулся в город.

Исходник: DVD5 R5
Качество видео: DVDRip
Формат видео: AVI

Видео: 704х528 (4:3), 25 fps, XviD ~ 1442 kbps avg, 0.155 bit/pixel
Аудио: 48 kHz, Dolby Digital AC3 2.0, 192 kbps

Раздача от:
Общее
Полное имя : Nasreddin.v.Hodzhente,ili.Ocharovannyy.princ.1959.DVDRip_[New-team]_by_AVP_Studio.avi
Формат : AVI
Формат/Информация : Audio Video Interleave
Размер файла : 1,09 Гбайт
Продолжительность : 1 ч. 34 м.
Общий поток : 1644 Кбит/сек
Программа кодирования : VirtualDubMod 1.5.10.3 | www.virtualdub-fr.org || (build 2550/release)
Библиотека кодирования : VirtualDubMod build 2550/release

Видео
Идентификатор : 0
Формат : MPEG-4 Visual
Профиль формата : Advanced Simple@L5
Параметр BVOP формата : 1
Параметр QPel формата : Нет
Параметр GMC формата : Без точки перехода
Параметр матрицы формата : Выборочная
Идентификатор кодека : XVID
Идентификатор кодека/Подсказка : XviD
Продолжительность : 1 ч. 34 м.
Битрейт : 1442 Кбит/сек
Ширина : 704 пикселя
Высота : 528 пикселей
Соотношение сторон : 4:3
Частота кадров : 25,000 кадров/сек
Цветовое пространство : YUV
Субдискретизация насыщенности : 4:2:0
Битовая глубина : 8 бит
Тип развёртки : Прогрессивная
Метод сжатия : С потерями
Бит/(Пиксели*Кадры) : 0.155
Размер потока : 979 Мбайт (88%)
Библиотека кодирования : XviD 73

Аудио
Идентификатор : 1
Формат : AC-3
Формат/Информация : Audio Coding 3
Параметр Endianness формата : Big
Идентификатор кодека : 2000
Продолжительность : 1 ч. 34 м.
Вид битрейта : Постоянный
Битрейт : 192 Кбит/сек
Каналы : 2 канала
Расположение каналов : Front: L R
Частота : 48,0 КГц
Частота кадров : 31,250 кадров/сек (1536 SPF)
Битовая глубина : 16 бит
Метод сжатия : С потерями
Размер потока : 130 Мбайт (12%)
Выравнивание : Разделение по промежуткам
Продолжительность промежутка : 40 мс. (1,00 видеокадр)
Время предзагрузки промежутка : 500 мс
pb.wtf



Скачать Насреддин в Ходженте, или Очарованный принц через торрент http://s013.radikal.ru/i324/1711/54/25b194c9addd.png Скачать фильм Насреддин в Ходженте, или Очарованный принц через торрент бесплантно в хорошем качестве Описание:По мотивам повести Л.Соловьёва «Очарованный принц».…Колоритен древний восточный город Ходжент. В пышном дворце эмира собрались ... 5 10 1
Info! Золотая раздача, скачанное не засчитывается.
Торрент: Зарегистрирован [2017-11-18 14:14] · скачан: 19 раз
Статус: √ проверено
Размер: 1.09 GB
Как cкачать? Как скачать Насреддин в Ходженте, или Очарованный принц через торрент | qTorrent

% Раздел Тема Автор DL S | L
Кино СССР [ 754 MB ] Насреддин в Ходженте или Очарованный принц [1959 СССР DVDRip от AVP Studio] AVP Studio Скачать
3 | 0
Кино СССР [ 1.09 GB ] Насреддин в Ходженте или Очарованный принц [1959 СССР DVDRip-AVC от AVP Studio] AVP Studio Скачать
1 | 0


>> Регистрируемся здесь <<






Отзывы и комментарии о схеме читаем и пишем здесь: ---> Отзывы и комментарии о схеме

Новые благодарочки в телеграм довольных пользователей:
скриншот   скриншот   скриншот   скриншот   скриншот
    Дорогой пользователь! Огромная просьба, поблагодарите релизера, оцените раздачу и оставьте свои комментарий, если Вы скачали Насреддин в Ходженте, или Очарованный принц через торрент бесплатно! Внесите свою лепту в развитие PiratBit!
    Комментировать посты могут только пользователи прошедшие не сложную регистрацию
    Показать сообщения:    

    Насреддин в Ходженте, или Очарованный принц через торрент
    Скачать бесплатно Насреддин в Ходженте, или Очарованный принц
    Насреддин в Ходженте, или Очарованный принц скачать торрент
    Насреддин в Ходженте, или Очарованный принц смотреть онлайн
    Cкачать фильм Насреддин в Ходженте, или Очарованный принц бесплатно
    Насреддин в Ходженте, или Очарованный принц скачать торрент в хорошем качестве
    Насреддин в Ходженте, или Очарованный принц смотреть онлайн бесплатно в хорошем качестве


    Вы не можете начинать темы
    Вы не можете отвечать на сообщения
    Вы не можете редактировать свои сообщения
    Вы не можете удалять свои сообщения
    Вы не можете голосовать в опросах
    Вы не можете прикреплять файлы к сообщениям
    Вы можете скачивать файлы