Ссылка на приватное зеркало нашего сайта всего за 1$. Внимание количество ограничено!!!

2 сезон

iTunes

1 сезон

1

2 сезон

2 сезон

iTunes

1 сезон

RePack

30

Ultimate

ВАЖНО

ИГРА 18+

pack

RePack

MK11
pack

Забери бонус

RePack

jed

!!Акция!!

Alien_Rage

RePack

fifa19

RePack

Assassins Creed: Odyssey

RePack

NEED FOR SPEED™ PAYBACK

4 сезон

9 сезон

Бесстыжие 9 сезон

Все сериалы

все сериалы на PB.wtf

RePack

FAR CRY 5
  

Детективное агентство Дирка Джентли / Dirk Gently's Holistic Detective Agency / Сезон: 2 / Серии 1-10 из 10 [2017, фантастика, триллер, драма, WEB-DL 720p] [MVO] (Good People) pb.wtf

Детективное агентство Дирка Джентли через торрент pb.wtf

Размер: 13.8 GB | Добавлен: 2 года 11 мес. назад | Торрент скачан:25 раз
Скачать  

18-11-2017 17:31 Детективное агентство Дирка Джентли Скачать торрент  

Детективное агентство Дирка Джентли / Dirk Gently's Holistic Detective Agency
Год выпуска: 2017
Страна: США, Великобритания
Жанр: фантастика, комедия
Продолжительность: ~00:50:00
Озвучание: Профессиональное (многоголосое закадровое) студия Good People
Субтитры: английские

Режиссеры: Пако Кабесас, Дин Паризо, Майкл Патрик Джэнн

В ролях: Элайджа Вуд, Кристиан Бако, Сэмюэл Барнетт, Нил Браун мл., Аарон Дуглас, Фиона Дуриф, Майкл Эклунд, Джейд Эшете, Мфо Коахо, Ханна Маркс и др.

Описание: Сериал, рассказывающий о приключениях частного детектива Джентли и его невольного помощника Тодда. Каждый сезон они расследуют некую большую, казалось бы, совершенно безумную тайну и сталкиваются со странными и временами опасными персонажами. В каждой серии они приближаются к разгадке на несколько шагов, хотя их расследование страдает от недостатка логики.



Качество: WEBRip 720p
Формат: MKV
Видео: 1280x718, 23.976 fps, MPEG-4 AVC ~3900 kbps avg
Аудио Rus: 48 kHz, AC3 Dolby Digital, 6 ch, ~384.00 kbps
Аудио Eng: 48 kHz, AC3 Dolby Digital, 6 ch, ~384.00 kbps
скриншот  скриншот  скриншот  
General
Unique ID : 177274734025085213317575226134948162870 (0x855DDF327E550B48889090785E0F2D36)
Complete name : Dirk.Gentlys.Holistic.Detective.Agency.S02E01.Space.Rabbit.720p.iT.WEB-DL.DD5.1.H264-GoodPeople.mkv
Format : Matroska
Format version : Version 2
File size : 1.39 GiB
Duration : 41mn 32s
Overall bit rate : 4 790 Kbps
Encoded date : UTC 2017-11-16 11:32:49
Writing application : mkvmerge v5.4.0 ('Piper') built on Mar 10 2012 13:34:39
Writing library : libebml v1.2.3 + libmatroska v1.3.0
DURATION : 00:41:01.824000000
NUMBER_OF_FRAMES : 954
NUMBER_OF_BYTES : 33611
_STATISTICS_WRITING_APP : mkvmerge v7.2.0 ('On Every Street') 64bit built on Sep 13 2014 15:52:10
_STATISTICS_WRITING_DATE_UT : 2017-10-25 22:54:56
_STATISTICS_TAGS : BPS DURATION NUMBER_OF_FRAMES NUMBER_OF_BYTES

Video
ID : 1
Format : AVC
Format/Info : Advanced Video Codec
Format profile : High@L3.1
Format settings, CABAC : No
Format settings, ReFrames : 2 frames
Codec ID : V_MPEG4/ISO/AVC
Duration : 41mn 32s
Bit rate : 3 927 Kbps
Width : 1 280 pixels
Height : 718 pixels
Display aspect ratio : 16:9
Frame rate mode : Constant
Frame rate : 23.976 fps
Color space : YUV
Chroma subsampling : 4:2:0
Bit depth : 8 bits
Scan type : Progressive
Bits/(Pixel*Frame) : 0.178
Stream size : 1.14 GiB (82%)
Language : English
Default : Yes
Forced : No
Color range : Limited
Color primaries : BT.709
Transfer characteristics : BT.709
Matrix coefficients : BT.709

Audio #1
ID : 2
Format : AC-3
Format/Info : Audio Coding 3
Mode extension : CM (complete main)
Format settings, Endianness : Big
Codec ID : A_AC3
Duration : 41mn 32s
Bit rate mode : Constant
Bit rate : 384 Kbps
Channel(s) : 6 channels
Channel positions : Front: L C R, Side: L R, LFE
Sampling rate : 48.0 KHz
Compression mode : Lossy
Stream size : 114 MiB (8%)
Language : Russian
Default : Yes
Forced : No

Audio #2
ID : 3
Format : AC-3
Format/Info : Audio Coding 3
Mode extension : CM (complete main)
Format settings, Endianness : Big
Codec ID : A_AC3
Duration : 41mn 32s
Bit rate mode : Constant
Bit rate : 384 Kbps
Channel(s) : 6 channels
Channel positions : Front: L C R, Side: L R, LFE
Sampling rate : 48.0 KHz
Compression mode : Lossy
Stream size : 114 MiB (8%)
Language : English
Default : No
Forced : No

Text
ID : 4
Format : UTF-8
Codec ID : S_TEXT/UTF8
Codec ID/Info : UTF-8 Plain Text
Language : English
Default : No
Forced : No
Внимание! Раздача ведётся путём добавления новых серий; при каждом добавлении создаётся новый торрент. Чтобы начать докачку новой серии, пользователям необходимо сделать следующее:
(1) остановить скачивание,
(2) удалить старый торрент у себя из клиента (старые серии удалять не надо),
(3) скачать новый торрент и запустить его у себя в клиенте вместо старого, при этом указать клиенту путь в старую папку куда и должно происходить скачивание новых серий.
Ваш клиент при этом должен произвести хеширование (проверку) старой папки (если не производит сам - помогите ему сделать это), и будет докачивать только те серии которых у вас ещё нет. Старые серии при этом не удаляются, а продолжают раздаваться!
Eсли вы уже удалили старые серии, то предотвратить повторную закачку старых серий можно, отжав галочку в соответствующих местах при запуске нового торрента. По возможности, желательно не удалять старые серии как можно дольше чтобы релизёр не столько продолжал раздавать старые серии, а смог сконцентрироваться на новых.
pb.wtf



Скачать Детективное агентство Дирка Джентли через торрент http://i85.fastpic.ru/big/2016/1212/27/7802c408b1f8650b1ead38a551e0ca27.png Скачать фильм Детективное агентство Дирка Джентли через торрент бесплантно в хорошем качестве Описание: Сериал, рассказывающий о приключениях частного детектива Джентли и его невольного помощника Тодда. Каждый сезон они расследуют ... 10 10 3
Торрент: Зарегистрирован [2017-12-22 12:55] · скачан: 25 раз
Статус: √ проверено
Размер: 13.8 GB
Как cкачать? Как скачать Детективное агентство Дирка Джентли через торрент | qTorrent

28-11-2019 20:33  

Отключить всю рекламу на сайте

    Дорогой пользователь! Огромная просьба, поблагодарите релизера, оцените раздачу и оставьте свои комментарий, если Вы скачали Детективное агентство Дирка Джентли через торрент бесплатно! Внесите свою лепту в развитие PiratBit!
    Комментировать посты могут только пользователи прошедшие не сложную регистрацию
    Показать сообщения:    

    Детективное агентство Дирка Джентли через торрент
    Скачать бесплатно Детективное агентство Дирка Джентли
    Детективное агентство Дирка Джентли скачать торрент
    Детективное агентство Дирка Джентли смотреть онлайн
    Cкачать фильм Детективное агентство Дирка Джентли бесплатно
    Детективное агентство Дирка Джентли скачать торрент в хорошем качестве
    Детективное агентство Дирка Джентли смотреть онлайн бесплатно в хорошем качестве


    Вы не можете начинать темы
    Вы не можете отвечать на сообщения
    Вы не можете редактировать свои сообщения
    Вы не можете удалять свои сообщения
    Вы не можете голосовать в опросах
    Вы не можете прикреплять файлы к сообщениям
    Вы можете скачивать файлы