Ссылка на приватное зеркало нашего сайта всего за 1$. Внимание количество ограничено!!!

2 сезон

iTunes

1 сезон

1

2 сезон

2 сезон

iTunes

1 сезон

RePack

30

Ultimate

ВАЖНО

ИГРА 18+

pack

RePack

MK11
pack

Забери бонус

RePack

jed

!!Акция!!

Alien_Rage

RePack

fifa19

RePack

Assassins Creed: Odyssey

RePack

NEED FOR SPEED™ PAYBACK

4 сезон

9 сезон

Бесстыжие 9 сезон

Все сериалы

все сериалы на PB.wtf

RePack

FAR CRY 5
  

Каратель / The Punisher / Сезон 1 / Серии 1-13 из 13 (Энди Годдард, Марк Йобст, Кари Скогланд) [2017, фантастика, боевик, триллер, драма, криминал, приключения, WEBRip 720p] MVO [NewStudio] pb.wtf

Каратель через торрент pb.wtf

Размер: 37.98 GB | Добавлен: 2 года 11 мес. назад | Торрент скачан:23 раза
Скачать  

18-11-2017 20:14 Каратель Скачать торрент  

Каратель / The PunisherГод выпуска: 2017
Страна: США
Жанр: фантастика, боевик, триллер, драма, криминал, приключения
Продолжительность: ~ 00:50:00
Перевод: Профессиональный многоголосый [NewStudio]
Субтитры: Русские

Режиссер: Энди Годдард, Марк Йобст, Кари Скогланд

rating

В ролях:

Бен Барнс, Джон Бернтал, Джейсон Р. Мур, Эбон Мосс-Бакрак, Майкл Натансон, Джейми Рэй Ньюман, Эмбер Роуз Рева, Пол Шульц, Даниэль Уэббер, Дебора Энн Уолл

Описание:

После того, как семья Фрэнка Касла была убита во время перестрелки нескольких банд Нью-Йорка, он решает отомстить и начинает охоту на преступников города. В преступном мире он становится известен как Каратель.

Качество: WEBRip 720p
Формат: MKV
Видео кодек: H.264
Аудио кодек: AC3

Видео: MPEG-4 AVC, ~ 6 800 Кбит/с, 1280х720
Аудио#1: Русский (AC3, 2 ch, 384 Кбит/с)

Рекламы нет!!!
скриншот   скриншот   скриншот  

Общее
Уникальный идентификатор : 170934897866281354239702852044254512068 (0x8098DD243C07D579861E0D51C40E83C4)
Полное имя : D:\Marvel's_The_Punisher_(s01)_NewStudio\Marvel's.The.Punisher.s01e01.WEBRip.720p.NewStudio.TV.mkv
Формат : Matroska
Версия формата : Version 2
Размер файла : 2,63 Гбайт
Продолжительность : 51 м. 23 с.
Общий поток : 7313 Кбит/сек
Дата кодирования : UTC 2017-11-19 13:09:08
Программа кодирования : mkvmerge v4.9.1 ('Ich will') сборка от Jul 11 2011 23:53:15
Библиотека кодирования : libebml v1.2.1 + libmatroska v1.1.1

Видео
Идентификатор : 1
Формат : AVC
Формат/Информация : Advanced Video Codec
Профиль формата : High@L4.1
Параметр CABAC формата : Да
Параметр ReFrames формата : 9 кадров
Режим смешивания : Header stripping
Идентификатор кодека : V_MPEG4/ISO/AVC
Продолжительность : 51 м. 23 с.
Битрейт : 6783 Кбит/сек
Ширина : 1280 пикселей
Высота : 720 пикселей
Соотношение сторон : 16:9
Режим частоты кадров : Постоянный
Частота кадров : 23,976 (24000/1001) кадра/сек
Цветовое пространство : YUV
Субдискретизация насыщенности : 4:2:0
Битовая глубина : 8 бит
Тип развёртки : Прогрессивная
Бит/(Пиксели*Кадры) : 0.307
Размер потока : 2,43 Гбайт (93%)
Библиотека кодирования : x264 core 152 r2851 ba24899
Настройки программы : cabac=1 / ref=9 / deblock=1:-3:-3 / analyse=0x3:0x133 / me=umh / subme=10 / psy=1 / psy_rd=1.00:0.00 / mixed_ref=1 / me_range=48 / chroma_me=1 / trellis=2 / 8x8dct=1 / cqm=0 / deadzone=21,11 / fast_pskip=0 / chroma_qp_offset=-2 / threads=12 / lookahead_threads=2 / sliced_threads=0 / nr=0 / decimate=0 / interlaced=0 / bluray_compat=0 / constrained_intra=0 / bframes=9 / b_pyramid=2 / b_adapt=2 / b_bias=0 / direct=3 / weightb=1 / open_gop=0 / weightp=2 / keyint=250 / keyint_min=23 / scenecut=40 / intra_refresh=0 / rc=crf / mbtree=0 / crf=18.0 / qcomp=0.60 / qpmin=0 / qpmax=69 / qpstep=4 / ip_ratio=1.40 / pb_ratio=1.30 / aq=3:0.70
Язык : English
Default : Да
Forced : Нет

Аудио
Идентификатор : 2
Формат : AC-3
Формат/Информация : Audio Coding 3
Расширение режима : CM (complete main)
Параметр Endianness формата : Big
Режим смешивания : Header stripping
Идентификатор кодека : A_AC3
Продолжительность : 51 м. 23 с.
Вид битрейта : Постоянный
Битрейт : 384 Кбит/сек
Каналы : 6 каналов
Расположение каналов : Front: L C R, Side: L R, LFE
Частота : 48,0 КГц
Частота кадров : 31,250 кадров/сек (1536 spf)
Метод сжатия : С потерями
Размер потока : 141 Мбайт (5%)
Заголовок : NewStudio
Язык : Russian
Default : Да
Forced : Нет

Когда раздача ведётся путём добавления новых серий, при каждом добавлении создётся новый торрент. Чтобы начать докачку новой серии, пользователям необходимо сделать следующее:
(1) остановить скачивание,
(2) удалить старый торрент у себя из клиента (старые серии удалять не надо),
(3) скачать новый торрент и запустить его у себя в клиенте вместо старого, при этом указать клиенту путь в старую папку, куда и должно происходить скачивание новых серий.
Ваш клиент при этом должен произвести хеширование (проверку) старой папки (если не производит сам - помогите ему сделать это), и будет докачивать только те серии, которых у вас ещё нет. Старые серии при этом не удаляются, а продолжают раздаваться!
Eсли вы уже удалили старые серии, то предотвратить повторную закачку старых серий можно, отжав галочку в соответсвующих местах при запуске нового торрента. По возможности, желательно не удалять старые серии как можно дольше, чтобы релизёр не столько продолжал раздавать старые серии, а смог сконцентрироваться на новых.
pb.wtf



Скачать Каратель через торрент http://s014.radikal.ru/i326/1711/91/eea257554d62.png Скачать фильм Каратель через торрент бесплантно в хорошем качестве Описание: После того, как семья Фрэнка Касла была убита во время перестрелки нескольких банд Нью-Йорка, он решает отомстить и начинает ... 9.5 10 10
Info! Золотая раздача, скачанное не засчитывается.
Торрент: Зарегистрирован [2017-11-29 11:38] · скачан: 23 раз
Статус: √ проверено
Размер: 37.98 GB
Как cкачать? Как скачать Каратель через торрент | qTorrent

% Раздел Тема Автор DL S | L
Зарубежные сериалы [ 14.6 GB ] Каратель / The Punisher / Сезон: 2 / Серии: 1-13 из 13 [2019 WEB-DL 720p] [DVO] killermax2013 Скачать
2 | 0
Зарубежные сериалы [ 29.1 GB ] Каратель / The Punisher / Сезон: 2 / Серии: 1-13 из 13 [2019 WEBRip 1080p] [MVO] killermax2013 Скачать
3 | 0
Зарубежные сериалы [ 12.44 GB ] Каратель / The Punisher / Сезон: 2 / Серии: 1-13 из 13 [2019 WEB-DL 720p] MVO [NewStudio] bober100 Скачать
2 | 0
Зарубежные сериалы [ 23.53 GB ] Каратель / The Punisher / Сезон: 2 / Серии: 1-13 из 13 [2019 WEBRip 1080p] [MVO] killermax2013 Скачать
1 | 0
Зарубежные сериалы [ 12.14 GB ] Каратель / The Punisher / Сезон: 2 / Серии: 1-13 из 13 [2019 WEBRip 720p] MVO [Baibako] bober100 Скачать
2 | 0
Зарубежные сериалы [ 23.29 GB ] Каратель / The Punisher / Сезон: 2 / Серии: 1-13 из 13 [2019 WEB-DL 1080p] MVO [Jaskier] bober100 Скачать
1 | 0
Зарубежные сериалы [ 12.19 GB ] Каратель / The Punisher / Сезон: 2 / Серии: 1-13 из 13 [2019 WEB-DL 720p] MVO [Jaskier] bober100 Скачать
1 | 0


Последний раз редактировалось: bober100 (2017-11-29 11:45), всего редактировалось 3 раз(а)

28-11-2019 20:33  

Отключить всю рекламу на сайте

20-11-2017 15:47 Каратель Скачать торрент  

Чтобы сказать,что захватила1-ая серия,так это большое преувеличение .Посмотрим,что дальше...pb.wtf



21-11-2017 15:15 Каратель Скачать торрент  

captain79 писал(а):

Чтобы сказать,что захватила1-ая серия,так это большое преувеличение .Посмотрим,что дальше...

Первая серия - это только разогрев.pb.wtf



22-11-2017 11:29 Каратель Скачать торрент  

3 серии смотрел норм-любые сопли -перемоткаpb.wtf



29-11-2017 12:07 Каратель Скачать торрент  

deIIis писал(а):

captain79 писал(а):

Чтобы сказать,что захватила1-ая серия,так это большое преувеличение .Посмотрим,что дальше...

Первая серия - это только разогрев.

На этом всё и закончилось,дальше бредpb.wtf



29-11-2017 13:31 Каратель Скачать торрент  

hernjapb.wtf



    Дорогой пользователь! Огромная просьба, поблагодарите релизера, оцените раздачу и оставьте свои комментарий, если Вы скачали Каратель через торрент бесплатно! Внесите свою лепту в развитие PiratBit!
    Комментировать посты могут только пользователи прошедшие не сложную регистрацию
    Показать сообщения:    

    Каратель через торрент
    Скачать бесплатно Каратель
    Каратель скачать торрент
    Каратель смотреть онлайн
    Cкачать фильм Каратель бесплатно
    Каратель скачать торрент в хорошем качестве
    Каратель смотреть онлайн бесплатно в хорошем качестве


    Вы не можете начинать темы
    Вы не можете отвечать на сообщения
    Вы не можете редактировать свои сообщения
    Вы не можете удалять свои сообщения
    Вы не можете голосовать в опросах
    Вы не можете прикреплять файлы к сообщениям
    Вы можете скачивать файлы