Ссылка на приватное зеркало нашего сайта всего за 1$. Внимание количество ограничено!!!

2 сезон

iTunes

1 сезон

1

iTunes

iTunes

iTunes

1 сезон

RePack

30

ИГРА 18+

pack

ВАЖНО

!!Акция!!

Alien_RageХит недели

RePack

MK11
pack

Забери бонус

RePack

jed

!!Акция!!

Alien_Rage

RePack

fifa19

RePack

Assassins Creed: Odyssey

RePack

NEED FOR SPEED™ PAYBACK

4 сезон

9 сезон

Бесстыжие 9 сезон

Все сериалы

все сериалы на PB.wtf

RePack

FAR CRY 5
  

Ни за что не сдамся / Серии 1-2 из 2 (Максим Субботин) [2017, Мелодрама, WEB-DL 1080p] pb.wtf

Ни за что не сдамся через торрент pb.wtf

Размер: 3.59 GB | Добавлен: 2 года 11 мес. назад | Торрент скачан:41 раз
Скачать  

18-11-2017 21:16 Ни за что не сдамся Скачать торрент  

Ни за что не сдамсяГод выпуска: 2017
Страна: Россия
Производство: Кинокомпания ­«Калейдоскоп фильм», «BUBBLEGUM PRODUCTION»
Жанр: Мелодрама
Продолжительность: 2 x 00:45:00
Перевод: Не требуется
Субтитры: отсутствуют
Реклама: Отсутствует

Режиссер: Максим Субботин



В ролях:

Юлия Подозёрова, Александр Никитин, Евгений Шириков, Мария Климова, Елена Доронина, Дмитрий Бакунин, Галина Анисимова, Дмитрий Артаев, Савелий Кудряшов

Описание:

Ирина была известной фотомоделью, но, когда вышла замуж, была вынуждена оставить модельный бизнес. Михаил, ее муж-бизнесмен, запретил ей заниматься этой порочной профессией. Теперь Ирина - владелица сети магазинов и мама маленького сына Леши. Шесть лет она ради сына терпела ужасный характер мужа, постоянные упреки и побои. Но вот, наконец, она решается подать на развод. В отместку Михаил отнимает у Ирины все: дом, бизнес и родительские права. Теперь ей даже запрещено видеться с Лешкой. Ирина решает выкрасть сына и сбежать с ним далекий провинциальный городок. Абсолютно беспомощная, без копейки в кармане, она пытается выжить в новом мире...

Качество: WEB-DL 1080p
Формат: MKV
Видео кодек: H.264
Аудио кодек: AC3

Видео: 1920x1080 (16:9), 25 fps, MPEG-4 AVC ~3 000 kbps avg, 0.055 bit/pixel
Аудио: 48 KHz, AC3, 2 ch, ~192.00 kbps avg
скриншот   скриншот   скриншот   скриншот  

Общее
Уникальный идентификатор : 227951195609707827190960369268632047144 (0xAB7DCDA83CF9274095295E3BAC1BCE28)
Полное имя : D:\Ni.Za.Chto.Ne.Sdamsja.2017.WEB-DL(1080p).OlLanDGroup\01.Ni.Za.Chto.Ne.Sdamsja.2017.WEB-DL(1080p).OlLanDGroup.mkv
Формат : Matroska
Версия формата : Version 2
Размер файла : 1,81 Гбайт
Продолжительность : 1 ч. 29 м.
Общий поток : 2911 Кбит/сек
Дата кодирования : UTC 2017-11-18 18:44:17
Программа кодирования : mkvmerge v7.8.0 ('River Man') 32bit built on Apr 3 2015 12:11:22
Библиотека кодирования : libebml v1.3.1 + libmatroska v1.4.2

Видео
Идентификатор : 1
Формат : AVC
Формат/Информация : Advanced Video Codec
Профиль формата : High@L4
Параметр CABAC формата : Да
Параметр ReFrames формата : 2 кадра
Идентификатор кодека : V_MPEG4/ISO/AVC
Продолжительность : 1 ч. 29 м.
Битрейт : 2661 Кбит/сек
Ширина : 1920 пикселей
Высота : 1080 пикселей
Соотношение сторон : 16:9
Режим частоты кадров : Постоянный
Частота кадров : 25,000 кадров/сек
Цветовое пространство : YUV
Субдискретизация насыщенности : 4:2:0
Битовая глубина : 8 бит
Тип развёртки : Прогрессивная
Бит/(Пиксели*Кадры) : 0.051
Размер потока : 1,66 Гбайт (91%)
Default : Да
Forced : Нет
Цветовой диапазон : Limited
Основные цвета : BT.709
Характеристики трансфера : BT.709
Коэффициенты матрицы : BT.709

Аудио
Идентификатор : 2
Формат : AC-3
Формат/Информация : Audio Coding 3
Расширение режима : CM (complete main)
Параметр Endianness формата : Big
Идентификатор кодека : A_AC3
Продолжительность : 1 ч. 29 м.
Вид битрейта : Постоянный
Битрейт : 192 Кбит/сек
Каналы : 2 канала
Расположение каналов : Front: L R
Частота : 48,0 КГц
Частота кадров : 31,250 кадров/сек (1536 spf)
Метод сжатия : С потерями
Размер потока : 123 Мбайт (7%)
Default : Да
Forced : Нет

pb.wtf



Скачать Ни за что не сдамся через торрент http://s018.radikal.ru/i528/1711/6e/43d365644652.jpg Скачать фильм Ни за что не сдамся через торрент бесплантно в хорошем качестве Описание: Ирина была известной фотомоделью, но, когда вышла замуж, была вынуждена оставить модельный бизнес. Михаил, ее муж-бизнесмен, ... 10 10 3
Торрент: Зарегистрирован [2017-11-18 21:16] · скачан: 41 раз
Статус: √ проверено
Размер: 3.59 GB
Как cкачать? Как скачать Ни за что не сдамся через торрент | qTorrent

28-11-2019 20:33  

Отключить всю рекламу на сайте

    Дорогой пользователь! Огромная просьба, поблагодарите релизера, оцените раздачу и оставьте свои комментарий, если Вы скачали Ни за что не сдамся через торрент бесплатно! Внесите свою лепту в развитие PiratBit!
    Комментировать посты могут только пользователи прошедшие не сложную регистрацию
    Показать сообщения:    

    Ни за что не сдамся через торрент
    Скачать бесплатно Ни за что не сдамся
    Ни за что не сдамся скачать торрент
    Ни за что не сдамся смотреть онлайн
    Cкачать фильм Ни за что не сдамся бесплатно
    Ни за что не сдамся скачать торрент в хорошем качестве
    Ни за что не сдамся смотреть онлайн бесплатно в хорошем качестве


    Вы не можете начинать темы
    Вы не можете отвечать на сообщения
    Вы не можете редактировать свои сообщения
    Вы не можете удалять свои сообщения
    Вы не можете голосовать в опросах
    Вы не можете прикреплять файлы к сообщениям
    Вы можете скачивать файлы