1 сезон

1 сезон

iTunes

1

КиноПоиск HD

Кинопоиск HD

iTunes

13

1 сезон

RePack

30

Новинка

ВАЖНО

ИГРА 18+

pack

RePack

MK11
pack

Легкие деньги

RePack

jed

RePack

fifa19

RePack

RDR2

RePack

NEED FOR SPEED™ PAYBACK

4 сезон

9 сезон

Бесстыжие 9 сезон

Все сериалы

все сериалы на PB.wtf

RePack

FAR CRY 5
  
Magnet ссылка

Гонка / Le Raid (Джамель Бенсала) [2002 г., Боевик, мелодрама, комедия, спорт, DVDRip-AVC, Дубляж] от ExKinoRay pb.wtf

Гонка через торрент pb.wtf

Размер: 2.51 GB | Добавлен: 3 года 4 мес. назад | Торрент скачан:15 раз
Скачать  

19-11-2017 05:51 Гонка Скачать торрент  

Гонка / Le Raid
Год выпуска: 2002
Страна: Франция
Жанр: Боевик, мелодрама, комедия, спорт
Продолжительность: 01:30:31
Перевод: Дубляж

Режиссер: Джамель Бенсала

Бюджет: FRF 116 000 000
Премьера в мире: 27 марта 2002

rating

В ролях: Жозиан Баласко, Жульен Корби, Лоран Дойч, Дидье Фламан, Элен де Фужроль, Жерар Жюньо, Атмен Келиф, Рошди Зем, Морис Бартелеми, Саша Бурдо

Описание: У них своё мнение и взгляд на жизнь. Они думают, что круты, хотя снова и снова заваливают дело. Но когда босс решил дать четырём незадачливым ворам последний шанс, они понимают, что это поручение может превратиться в отпуск. Всё, что им нужно сделать, — это полететь в Монреаль, поселиться в шикарном отеле и не спускать глаз с новой подружки босса Натали. Они решают обследовать её номер, но по ошибке попадают в соседнюю комнату и принимают 4-миллионный контракт на убийство богатой и спортивной наследницы крупного состояния. Теперь им предстоит узнать, что такое настоящая переделка. Принять контракт — самое лёгкое, но чтобы довести дело до конца, им предстоят большие гонки. Больше никаких ночных клубов, стильной одежды, сейчас — прыжки с парашютом, спуск по горной реке, горные лыжи и убийство Леонор. Но настоящие убийцы — те, кто преследуют их.

Качество: DVDRip-AVC
Формат: MKV
Видео кодек: MPEG4
Аудио кодек: AC3
Видео: MPEG-4 AVC, 3200 Кбит/с, 720x570@1024x570, 25 кадров/сек
Аудио#1: Русский (AC3, 6 ch, 384 Кбит/с, 48 КГц)
Аудио#2: Французский (AC3, 6 ch, 384 Кбит/с, 48 КГц)
Релиз от:




raw [info]: 720x570p 64:45 @ 25/1 fps (cfr)
x264 [info]: using SAR=64/45
x264 [info]: using cpu capabilities: MMX2 SSE2Fast LZCNT
x264 [info]: profile High, level 4.1
x264 [info]: frame I:821 Avg QP:17.63 size: 56615
x264 [info]: frame P:31496 Avg QP:19.66 size: 27844
x264 [info]: frame B:103471 Avg QP:21.73 size: 12063
x264 [info]: consecutive B-frames: 3.0% 4.7% 11.6% 12.5% 7.9% 56.8% 1.8% 0.7% 0.3% 0.1% 0.1% 0.5% 0.1% 0.0% 0.0% 0.0% 0.0%
-----
Общее
Уникальный идентификатор : 190078213808523991982789086643155238259 (0x8EFFBB7CECB03D37B48D14C3583DFD73)
Полное имя : D:\ExKinoRay\Gonka.2002.DVDRip-AVC.ExKinoRay.mkv
Формат : Matroska
Версия формата : Version 2
Размер файла : 2,51 Гбайт
Продолжительность : 1 ч. 30 м.
Общий поток : 3968 Кбит/сек
Дата кодирования : UTC 2017-11-19 03:38:29
Программа кодирования : mkvmerge v7.8.0 ('River Man') 32bit built on Apr 3 2015 12:11:22
Библиотека кодирования : libebml v1.3.1 + libmatroska v1.4.2

Видео
Идентификатор : 1
Формат : AVC
Формат/Информация : Advanced Video Codec
Профиль формата : High@L4.1
Параметр CABAC формата : Да
Параметр ReFrames формата : 14 кадров
Идентификатор кодека : V_MPEG4/ISO/AVC
Продолжительность : 1 ч. 30 м.
Битрейт : 3200 Кбит/сек
Ширина : 720 пикселей
Высота : 570 пикселей
Соотношение сторон : 16:9
Режим частоты кадров : Постоянный
Частота кадров : 25,000 кадров/сек
Цветовое пространство : YUV
Субдискретизация насыщенности : 4:2:0
Битовая глубина : 8 бит
Тип развёртки : Прогрессивная
Бит/(Пиксели*Кадры) : 0.312
Размер потока : 1,97 Гбайт (79%)
Библиотека кодирования : x264 core 148 r2638 7599210
Настройки программы : cabac=1 / ref=14 / deblock=1:-2:-2 / analyse=0x3:0x133 / me=umh / subme=10 / psy=1 / psy_rd=1.05:0.15 / mixed_ref=1 / me_range=32 / chroma_me=1 / trellis=2 / 8x8dct=1 / cqm=0 / deadzone=21,11 / fast_pskip=0 / chroma_qp_offset=-3 / threads=4 / lookahead_threads=1 / sliced_threads=0 / nr=0 / decimate=0 / interlaced=0 / bluray_compat=0 / constrained_intra=0 / bframes=16 / b_pyramid=2 / b_adapt=2 / b_bias=0 / direct=3 / weightb=1 / open_gop=0 / weightp=2 / keyint=250 / keyint_min=25 / scenecut=40 / intra_refresh=0 / rc=2pass / mbtree=0 / bitrate=3200 / ratetol=1.0 / qcomp=0.60 / qpmin=0 / qpmax=69 / qpstep=4 / cplxblur=20.0 / qblur=0.5 / ip_ratio=1.40 / pb_ratio=1.30 / aq=1:1.00
Язык : English
Default : Да
Forced : Нет
Цветовой диапазон : Limited
Основные цвета : BT.601 NTSC
Характеристики трансфера : BT.601
Коэффициенты матрицы : BT.601

Аудио #1
Идентификатор : 2
Формат : AC-3
Формат/Информация : Audio Coding 3
Расширение режима : CM (complete main)
Параметр Endianness формата : Big
Идентификатор кодека : A_AC3
Продолжительность : 1 ч. 30 м.
Вид битрейта : Постоянный
Битрейт : 384 Кбит/сек
Каналы : 6 каналов
Расположение каналов : Front: L C R, Side: L R, LFE
Частота : 48,0 КГц
Частота кадров : 31,250 кадров/сек (1536 spf)
Метод сжатия : С потерями
Задержка видео : 517 мс.
Размер потока : 249 Мбайт (10%)
Язык : Russian
Default : Да
Forced : Нет

Аудио #2
Идентификатор : 3
Формат : AC-3
Формат/Информация : Audio Coding 3
Расширение режима : CM (complete main)
Параметр Endianness формата : Big
Идентификатор кодека : A_AC3
Продолжительность : 1 ч. 30 м.
Вид битрейта : Постоянный
Битрейт : 384 Кбит/сек
Каналы : 6 каналов
Расположение каналов : Front: L C R, Side: L R, LFE
Частота : 48,0 КГц
Частота кадров : 31,250 кадров/сек (1536 spf)
Метод сжатия : С потерями
Задержка видео : 519 мс.
Размер потока : 249 Мбайт (10%)
Язык : French
Default : Нет
Forced : Нет

pb.wtf



Скачать Гонка через торрент http://s019.radikal.ru/i636/1711/c4/a605cc24c32b.jpg Скачать фильм Гонка через торрент бесплантно в хорошем качестве Описание: У них своё мнение и взгляд на жизнь. Они думают, что круты, хотя снова и снова заваливают дело. Но когда босс решил дать четырём ... 10 10 2
Info! Золотая раздача, скачанное не засчитывается.
Торрент: Зарегистрирован [2017-11-19 05:51] · скачан: 15 раз
Статус: √ проверено
Размер: 2.51 GB
Как cкачать? Как скачать Гонка через торрент | UTorrent

28-11-2019 20:33  

Отключить всю рекламу на сайте

19-11-2017 08:37 Гонка Скачать торрент  

Топик был перенесен из форума Оформление раздач (Кино, Видео и ТВ) в форум Фильмы 2001-2005


-Lexx-pb.wtf



    Дорогой пользователь! Огромная просьба, поблагодарите релизера, оцените раздачу и оставьте свои комментарий, если Вы скачали Гонка через торрент бесплатно! Внесите свою лепту в развитие PiratBit!
    Комментировать посты могут только пользователи прошедшие не сложную регистрацию
    Показать сообщения:    

    Гонка через торрент
    Скачать бесплатно Гонка
    Гонка скачать торрент
    Гонка смотреть онлайн
    Cкачать фильм Гонка бесплатно
    Гонка скачать торрент в хорошем качестве
    Гонка смотреть онлайн бесплатно в хорошем качестве


    Вы не можете начинать темы
    Вы не можете отвечать на сообщения
    Вы не можете редактировать свои сообщения
    Вы не можете удалять свои сообщения
    Вы не можете голосовать в опросах
    Вы не можете прикреплять файлы к сообщениям
    Вы можете скачивать файлы