Всегда рабочее зеркало просто перед .vidak.icu напиши любое слово или цифру, Пример http://xb1.vidak.icu

>

7.4

iTunes

7.4

2 сезон

9.4

1 сезон

1

7.4

2 сезон

7.2

iTunes

6.0

MVO

13

6.1

iTunes

8.3

Пиратка

30

ULTIMATE

pack

9.9

Лицензия

ВАЖНО

ИГРА 18+

pack

7.3

RePack

MK11

7.7

RePack

jed

7.8

RePack

fifa19

8.5

RePack

RDR2

RePack

NEED FOR SPEED™ PAYBACK

1 сезон

9 сезон

Бесстыжие 9 сезон

Все сериалы

все сериалы на PB.wtf

RePack

FAR CRY 5

Anonymous, доброй ночи, мы катастрофически не успеваем собрать деньги на оплату серверов, помогите нам пожалуйста 5,10,15р., для нас важна любая помощь . В качестве благодарности мы отключим Вам всю рекламу на сайте (укажите свой ник в строку Ваше имя)!

×
  
Magnet ссылка

Четыре мухи на сером бархате / 4 mosche di velluto grigio (Дарио Ардженто) [1971, триллер, криминал, детектив, BDRip 1080p by msltel] AVO pb.wtf

Четыре мухи на сером бархате через торрент pb.wtf

Размер: 8.87 GB | Добавлен: 4 года 2 мес. назад | Торрент скачан:3 раза
Смотреть онлайн Четыре мухи на сером бархате | Скачать    Ребята, помогите собрать деньги на оплату серверов!!!

19-11-2017 12:16 Четыре мухи на сером бархате Скачать торрент  

Название: Четыре мухи на сером бархате
Оригинальное название: 4 mosche di velluto grigio
Год выпуска: 1971
Страна: Италия, Франция
Жанр: триллер, криминал, детектив
Продолжительность: 01:43:19
Перевод: авторский

Режиссер: Дарио Ардженто
В ролях: Майкл Брэндон, Мимзи Фармер, Жан-Пьер Марьель, Бад Спенсер, Альдо Буфи Ланди, Калисто Калисти, Мариса Фаббри, Оресте Лионнелло, Фабрицио Морони, Коррадо Ольми

О фильме: Молодой музыкант поздно вечером в нелепой потасовке случайно зарезал странного типа его же ножом. Далее Ардженто разыгрывает свою излюбленную карту — нагнетание подозрений, кошмаров и новых смертей...



Качество: BDRip 1080p
Формат: MKV
Видео: MPEG-4 AVC, 11.7 Mбит/с, 1920x818, 23.976 кадр/с
Аудио 1: русский, AC3, 192 kbps, 2 ch [авторский, Антон Алексеев]
Аудио 2: итальянский, DTS, 447 kbps, 2 ch, 48 kHz [оригинал]
Субтитры: английские
Поименованные главы/чаптеры.
Общее
Уникальный идентификатор : 200470235986039494001079768826838518780 (0x96D129BD46EE291C9320618863000BFC)
Полное имя : D:\Video\Четыре мухи на сером бархате.1971.BDRip.1080p by msltel.mkv
Формат : Matroska
Версия формата : Version 4 / Version 2
Размер файла : 8,87 Гбайт
Продолжительность : 1 ч. 43 м.
Общий поток : 12,3 Мбит/сек
Название фильма : Rip by msltel
Дата кодирования : UTC 2017-11-19 02:47:04
Программа кодирования : mkvmerge v8.2.0 ('World of Adventure') 64bit
Библиотека кодирования : libebml v1.3.1 + libmatroska v1.4.2

Видео
Идентификатор : 1
Формат : AVC
Формат/Информация : Advanced Video Codec
Профиль формата : High@L4.1
Настройки формата : CABAC / 4 Ref Frames
Параметр CABAC формата : Да
Параметр RefFrames формата : 4 кадра
Идентификатор кодека : V_MPEG4/ISO/AVC
Продолжительность : 1 ч. 43 м.
Битрейт : 11,7 Мбит/сек
Ширина : 1920 пикселей
Высота : 818 пикселей
Соотношение сторон : 2,35:1
Режим частоты кадров : Постоянный
Частота кадров : 23,976 (24000/1001) кадра/сек
Цветовое пространство : YUV
Субдискретизация насыщенности : 4:2:0
Битовая глубина : 8 бит
Тип развёртки : Прогрессивная
Бит/(Пиксели*Кадры) : 0.310
Размер потока : 8,41 Гбайт (95%)
Библиотека кодирования : x264 core 146 r2538 121396c
Настройки программы : cabac=1 / ref=4 / deblock=1:-3:-2 / analyse=0x3:0x113 / me=umh / subme=11 / psy=1 / psy_rd=1.00:0.15 / mixed_ref=1 / me_range=32 / chroma_me=1 / trellis=2 / 8x8dct=1 / cqm=0 / deadzone=21,11 / fast_pskip=0 / chroma_qp_offset=-3 / threads=6 / lookahead_threads=1 / sliced_threads=0 / nr=0 / decimate=1 / interlaced=0 / bluray_compat=0 / constrained_intra=0 / bframes=9 / b_pyramid=2 / b_adapt=2 / b_bias=0 / direct=1 / weightb=1 / open_gop=0 / weightp=2 / keyint=230 / keyint_min=23 / scenecut=40 / intra_refresh=0 / rc_lookahead=40 / rc=crf / mbtree=0 / crf=18.8 / qcomp=0.60 / qpmin=0 / qpmax=69 / qpstep=4 / vbv_maxrate=62500 / vbv_bufsize=78125 / crf_max=0.0 / nal_hrd=none / filler=0 / ip_ratio=1.40 / pb_ratio=1.30 / aq=1:1.00
Язык : Italian
Default : Да
Forced : Нет

Аудио #1
Идентификатор : 2
Формат : AC-3
Формат/Информация : Audio Coding 3
Идентификатор кодека : A_AC3
Продолжительность : 1 ч. 43 м.
Вид битрейта : Постоянный
Битрейт : 192 Кбит/сек
Каналы : 2 канала
Расположение каналов : Front: L R
Частота : 48,0 КГц
Частота кадров : 31,250 кадров/сек (1536 SPF)
Битовая глубина : 16 бит
Метод сжатия : С потерями
Размер потока : 142 Мбайт (2%)
Заголовок : Антон Алексеев
Язык : Russian
ServiceKind/String : Complete Main
Default : Да
Forced : Нет

Аудио #2
Идентификатор : 3
Формат : DTS
Формат/Информация : Digital Theater Systems
Идентификатор кодека : A_DTS
Продолжительность : 1 ч. 43 м.
Вид битрейта : Постоянный
Битрейт : 447 Кбит/сек
Каналы : 2 канала
Расположение каналов : Front: L R
Частота : 48,0 КГц
Частота кадров : 93,750 кадра/сек (512 SPF)
Битовая глубина : 16 бит
Метод сжатия : С потерями
Размер потока : 330 Мбайт (4%)
Заголовок : original
Язык : Italian
Default : Нет
Forced : Нет

Текст
Идентификатор : 4
Формат : UTF-8
Идентификатор кодека : S_TEXT/UTF8
Идентификатор кодека/Информация : UTF-8 Plain Text
Продолжительность : 1 ч. 39 м.
Битрейт : 33 бит/сек
ElementCount : 702
Размер потока : 24,5 Кбайт (0%)
Заголовок : английские
Язык : English
Default : Нет
Forced : Нет

Меню
00:00:00.000 : en:Opening Credits
00:07:11.848 : en:Are You Still Awake
00:21:49.475 : en:God Almighty
00:29:36.441 : en:Park
00:45:20.051 : en:Arrosio
00:50:25.397 : en:I Must get Away
00:58:02.687 : en:Villa Rapidi
01:04:49.093 : en:You Guessed Right
01:14:58.077 : en:Call me Back
01:22:50.215 : en:Four Flies
01:26:45.242 : en:She is Crazy
01:41:13.567 : en:End Credits
pb.wtf



Скачать Четыре мухи на сером бархате через торрент http://s48.radikal.ru/i122/1711/98/0c291915f3e9.jpg Скачать, смотреть онлайн Четыре мухи на сером бархате бесплантно в хорошем качестве О фильме: Молодой музыкант поздно вечером в нелепой потасовке случайно зарезал странного а его же ножом. Далее Ардженто разыгрывает свою ... 10 10 3
Info! Золотая раздача, скачанное не засчитывается.
Торрент: Зарегистрирован [2017-11-19 12:16] · скачан: 3 раз
Статус: √ проверено
Размер: 8.87 GB
Как cкачать? Как скачать Четыре мухи на сером бархате через торрент | UTorrent

% Раздел Тема Автор DL S | L
Фильмы с авторской озвучкой [ 2.18 GB ] Четыре мухи на сером бархате / 4 mosche di velluto grigio [1971 BDRip-AVC] AVO koenig Скачать
1 | 0
Фильмы с авторской озвучкой [ 3.8 GB ] Четыре мухи на сером бархате / 4 mosche di velluto grigio [1971 BDRip 720p by msltel] AVO msltel Скачать
1 | 0

28-11-2019 20:33  

Отключить всю рекламу на сайте

    Дорогой пользователь! Огромная просьба, поблагодарите релизера, оцените раздачу и оставьте свои комментарий, если Вы скачали Четыре мухи на сером бархате через торрент бесплатно!
    Комментировать посты могут только пользователи прошедшие не сложную регистрацию
    Показать сообщения:    

    Четыре мухи на сером бархате через торрент
    Скачать бесплатно Четыре мухи на сером бархате
    Четыре мухи на сером бархате скачать торрент
    Четыре мухи на сером бархате смотреть онлайн
    Cкачать фильм Четыре мухи на сером бархате бесплатно
    Четыре мухи на сером бархате скачать торрент в хорошем качестве
    Четыре мухи на сером бархате смотреть онлайн бесплатно в хорошем качестве


    Вы не можете начинать темы
    Вы не можете отвечать на сообщения
    Вы не можете редактировать свои сообщения
    Вы не можете удалять свои сообщения
    Вы не можете голосовать в опросах
    Вы не можете прикреплять файлы к сообщениям
    Вы можете скачивать файлы