Ссылка на приватное зеркало нашего сайта всего за 1$. Внимание количество ограничено!!!

2 сезон

iTunes

1 сезон

1

2 сезон

2 сезон

iTunes

1 сезон

RePack

30

Новинка

ВАЖНО

ИГРА 18+

pack

RePack

MK11
pack

Забери бонус

RePack

jed

!!Акция!!

Alien_Rage

RePack

fifa19

RePack

Assassins Creed: Odyssey

RePack

NEED FOR SPEED™ PAYBACK

4 сезон

9 сезон

Бесстыжие 9 сезон

Все сериалы

все сериалы на PB.wtf

RePack

FAR CRY 5
  

Каратель / The Punisher / Сезон 1 / Серии 1-13 из 13 (Энди Годдард, Марк Йобст, Кари Скогланд) [2017, фантастика, боевик, триллер, драма, криминал, приключения, WEBRip 1080p] MVO (LostFilm) pb.wtf

Каратель через торрент pb.wtf

Размер: 29.05 GB | Добавлен: 2 года 10 мес. назад | Торрент скачан:371 раз
Скачать  

19-11-2017 19:36 Каратель Скачать торрент  

Каратель / The Punisher
Сезон 1 / Серии 1-13 из 13


Год выпуска: 2017

Страна: США
Жанр: фантастика, боевик, триллер, драма, криминал, приключения

Продолжительность: 13 х ~00:51:32
Перевод: Профессиональный многоголосый [LostFilm]
Реклама: Заставка и логотип LostFilm
Режиссер: Энди Годдард , Том Шенклэнд , Антонио Кампос
В ролях:

Джон Бернтал, Эмбер Роуз Рева, Эбон Мосс-Бакрак, Бен Барнс, Джейми Рэй Ньюман, Коби Фрумер (Zach Lieberman), Пол Шульц, Майкл Натансон, Рипли Собо (Leo Lieberman), Даниэль Уэббер, Джейсон Р. Мур, Келли Баррет
Описание:
После того, как семья Фрэнка Касла была убита во время перестрелки нескольких банд Нью-Йорка, он решает отомстить и начинает охоту на преступников города. В преступном мире он становится известен как Каратель.
Рейтинг:

Качество: WEBRip 1080p
Формат: MKV
Видео: AVC, 1920x1080 (16:9), 5242 kbps, 23,976 fps, 0,105 bpp
Аудио №1: русский / AC3 / 2.0 / 48 kHz / 384 kbps / - MVO
Аудио №2: английский /AC3 / 2.0 / 48 kHz / 384 kbps / - Оригинал

Внимание! Раздача ведётся путём добавления новых серий; при каждом добавлении создаётся новый торрент. Чтобы начать докачку новой серии, пользователям необходимо сделать следующее:
(1) остановить скачивание,
(2) удалить старый торрент у себя из клиента (старые серии удалять не надо),
(3) скачать новый торрент и запустить его у себя в клиенте вместо старого, при этом указать клиенту путь в старую папку куда и должно происходить скачивание новых серий.
Ваш клиент при этом должен произвести хеширование (проверку) старой папки (если не производит сам - помогите ему сделать это), и будет докачивать только те серии которых у вас ещё нет. Старые серии при этом не удаляются, а продолжают раздаваться!
Eсли вы уже удалили старые серии, то предотвратить повторную закачку старых серий можно, отжав галочку в соответствующих местах при запуске нового торрента. По возможности, желательно не удалять старые серии как можно дольше чтобы релизёр не столько продолжал раздавать старые серии, а смог сконцентрироваться на новых.
General
Unique ID : 225370065786563575856543520430810709890 (0xA98CB221B29DCDB3957E64B22163BF82)
Complete name : E:\Marvels.The.Punisher.S01.1080p.rus.LostFilm.TV\Marvels.The.Punisher.S01E01.1080p.rus.LostFilm.TV.mkv
Format : Matroska
Format version : Version 4 / Version 2
File size : 2.16 GiB
Duration : 51 min
Overall bit rate : 6 009 kb/s
Encoded date : UTC 2017-11-19 17:29:16
Writing application : mkvmerge v9.5.0 ('Quiet Fire') 64bit
Writing library : libebml v1.3.4 + libmatroska v1.4.5

Video
ID : 1
Format : AVC
Format/Info : Advanced Video Codec
Format profile : High@L4.1
Format settings, CABAC : Yes
Format settings, ReFrames : 4 frames
Codec ID : V_MPEG4/ISO/AVC
Duration : 51 min
Bit rate : 5 242 kb/s
Width : 1 920 pixels
Height : 1 080 pixels
Display aspect ratio : 16:9
Frame rate mode : Constant
Frame rate : 23.976 (24000/1001) FPS
Original frame rate : 23.976 (23976/1000) FPS
Color space : YUV
Chroma subsampling : 4:2:0
Bit depth : 8 bits
Scan type : Progressive
Bits/(Pixel*Frame) : 0.105
Stream size : 1.84 GiB (85%)
Writing library : x264 core 112 r1834 a51816a
Encoding settings : cabac=1 / ref=4 / deblock=1:-3:-2 / analyse=0x3:0x113 / me=hex / subme=7 / psy=1 / psy_rd=1.00:0.00 / mixed_ref=1 / me_range=16 / chroma_me=1 / trellis=1 / 8x8dct=1 / cqm=0 / deadzone=21,11 / fast_pskip=1 / chroma_qp_offset=-2 / threads=6 / sliced_threads=0 / nr=0 / decimate=1 / interlaced=0 / constrained_intra=0 / bframes=5 / b_pyramid=2 / b_adapt=1 / b_bias=0 / direct=1 / weightb=1 / open_gop=0 / weightp=2 / keyint=250 / keyint_min=25 / scenecut=40 / intra_refresh=0 / rc_lookahead=40 / rc=2pass / mbtree=1 / bitrate=5242 / ratetol=1.0 / qcomp=0.60 / qpmin=0 / qpmax=51 / qpstep=4 / cplxblur=20.0 / qblur=0.5 / vbv_maxrate=10000 / vbv_bufsize=256000 / ip_ratio=1.40 / aq=1:1.00 / nal_hrd=none
Default : Yes
Forced : No

Audio #1
ID : 2
Format : AC-3
Format/Info : Audio Coding 3
Mode extension : CM (complete main)
Format settings, Endianness : Big
Codec ID : A_AC3
Duration : 51 min
Bit rate mode : Constant
Bit rate : 384 kb/s
Channel(s) : 2 channels
Channel positions : Front: L R
Sampling rate : 48.0 kHz
Frame rate : 31.250 FPS (1536 spf)
Compression mode : Lossy
Stream size : 142 MiB (6%)
Default : Yes
Forced : No

Audio #2
ID : 3
Format : AC-3
Format/Info : Audio Coding 3
Mode extension : CM (complete main)
Format settings, Endianness : Big
Codec ID : A_AC3
Duration : 51 min
Bit rate mode : Constant
Bit rate : 384 kb/s
Channel(s) : 2 channels
Channel positions : Front: L R
Sampling rate : 48.0 kHz
Frame rate : 31.250 FPS (1536 spf)
Compression mode : Lossy
Stream size : 142 MiB (6%)
Default : No
Forced : No
pb.wtf



Скачать Каратель через торрент http://i4.imageban.ru/out/2017/11/19/47b8d9ccc9644d7673dfea182ae42d2b.png Скачать фильм Каратель через торрент бесплантно в хорошем качестве Описание: После того, как семья Фрэнка Касла была убита во время перестрелки нескольких банд Нью-Йорка, он решает отомстить и начинает ... 9.6 10 26
× Info от релизера! Торрент перезалит, добавлены 12-13 серии.
Info! Золотая раздача, скачанное не засчитывается.
Торрент: Зарегистрирован [2017-12-26 19:14] · скачан: 371 раз
Статус: √ проверено
Размер: 29.05 GB
Как cкачать? Как скачать Каратель через торрент | qTorrent

% Раздел Тема Автор DL S | L
Зарубежные сериалы [ 14.6 GB ] Каратель / The Punisher / Сезон: 2 / Серии: 1-13 из 13 [2019 WEB-DL 720p] [DVO] killermax2013 Скачать
1 | 0
Зарубежные сериалы [ 29.1 GB ] Каратель / The Punisher / Сезон: 2 / Серии: 1-13 из 13 [2019 WEBRip 1080p] [MVO] killermax2013 Скачать
2 | 0
Зарубежные сериалы [ 12.44 GB ] Каратель / The Punisher / Сезон: 2 / Серии: 1-13 из 13 [2019 WEB-DL 720p] MVO [NewStudio] bober100 Скачать
2 | 0
Зарубежные сериалы [ 23.53 GB ] Каратель / The Punisher / Сезон: 2 / Серии: 1-13 из 13 [2019 WEBRip 1080p] [MVO] killermax2013 Скачать
1 | 0
Зарубежные сериалы [ 12.14 GB ] Каратель / The Punisher / Сезон: 2 / Серии: 1-13 из 13 [2019 WEBRip 720p] MVO [Baibako] bober100 Скачать
1 | 0
Зарубежные сериалы [ 23.29 GB ] Каратель / The Punisher / Сезон: 2 / Серии: 1-13 из 13 [2019 WEB-DL 1080p] MVO [Jaskier] bober100 Скачать
1 | 0
Зарубежные сериалы [ 12.19 GB ] Каратель / The Punisher / Сезон: 2 / Серии: 1-13 из 13 [2019 WEB-DL 720p] MVO [Jaskier] bober100 Скачать
1 | 0


Последний раз редактировалось: -Lexx- (2017-12-26 19:14), всего редактировалось 9 раз(а)

28-11-2019 20:33  

Отключить всю рекламу на сайте

25-11-2017 19:11 Каратель Скачать торрент  

что то запоздало(( Я все 13 уже просмотрел. Сериал на 4- из 5pb.wtf



25-11-2017 19:19 Каратель Скачать торрент  

Diman4ik, LostFilm так озвучивает.pb.wtf



29-12-2017 20:13 Каратель Скачать торрент  

Бомбезный фильм! Некоторая игра актеров подсобила, хотя возможно так и надо. А так, фильм чертовски хорош (:pb.wtf



    Дорогой пользователь! Огромная просьба, поблагодарите релизера, оцените раздачу и оставьте свои комментарий, если Вы скачали Каратель через торрент бесплатно! Внесите свою лепту в развитие PiratBit!
    Комментировать посты могут только пользователи прошедшие не сложную регистрацию
    Показать сообщения:    

    Каратель через торрент
    Скачать бесплатно Каратель
    Каратель скачать торрент
    Каратель смотреть онлайн
    Cкачать фильм Каратель бесплатно
    Каратель скачать торрент в хорошем качестве
    Каратель смотреть онлайн бесплатно в хорошем качестве


    Вы не можете начинать темы
    Вы не можете отвечать на сообщения
    Вы не можете редактировать свои сообщения
    Вы не можете удалять свои сообщения
    Вы не можете голосовать в опросах
    Вы не можете прикреплять файлы к сообщениям
    Вы можете скачивать файлы