Всегда рабочее зеркало без VPN и Proxy просто перед .vidak.icu напиши любое слово или цифру, Пример http://yqnd.vidak.icu

MVO

2 сезон

1 сезон

1

1 сезон

iTunes

2 сезон

13

1 сезон

Deluxe

pack

Рекомендуем

Пиратка

30

ВАЖНО

RePack

MK11

RePack

jed

RePack

fifa19

RePack

RDR2

RePack

NEED FOR SPEED™ PAYBACK

Кинопоиск HD

6 сезон

 Острые козырьки 6 сезон

Все сериалы

все сериалы на PB.wtf

RePack

FAR CRY 5

Anonymous, нам критически не хватает 5601 руб. на оплату серверов и переферии за Апрель, помоги нам пожалуйста, вся надежда только на тебя. В благодарность мы отключим тебе всю рекламу на сайте!

×
  
Magnet ссылка

Валериан и город тысячи планет / Valerian and the City of a Thousand Planets (Люк Бессон) [2017, фантастика, фэнтези, боевик, BDRip-AVC] Dub (Лицензия), AVO (Смирнов) - ExKinoRay pb.wtf

Валериан и город тысячи планет через торрент pb.wtf

Размер: 2.94 GB | Добавлен: 4 года 5 мес. назад | Торрент скачан:242 раза
Смотреть онлайн Валериан и город тысячи планет | Скачать    Ребята, помогите собрать деньги на оплату серверов!!!

19-11-2017 22:57 Валериан и город тысячи планет Скачать торрент  

Информация о фильме
Название: Валериан и город тысячи планет
Оригинальное название: Valerian and the City of a Thousand Planets
Год выпуска: 2017
Жанр: Фантастика, фэнтези, боевик, приключения
Страна: Франция, Китай, Бельгия, Германия, ОАЭ, США, Великобритания, Канада
Студия: EuropaCorp, Fundamental Films, Grive Productions, Gulf Film, Novo Pictures
Продолжительность: 02:17:03
Перевод: Дублированный | Лицензия
Авторский | Смирнов
Примечание: Релиз без рекламы!
Режиссер: Люк Бессон
В ролях: Дэйн ДеХаан, Кара Делевинь, Клайв Оуэн, Рианна, Итэн Хоук, Херби Хэнкок, Крис У, Сэм Спруэлл, Ален Шаба, Рутгер Хауэр

Описание:
2700 год. Валериан и Лорелин — космические спецагенты, которые по долгу службы впутались в подозрительное дело и стали невольными участниками то ли межгалактического заговора, то ли аферы причудливых поселенцев планеты Альфа, прибывших туда из различных миров со всех уголков галактик.

rating

Файл
Контейнер: MKV
Качество: BDRip-AVC
Видео: AVC, 1024x428 (2.40:1), 23.976 fps, 1985 Kbps, 0.189 bit/pixel
Аудио 1: AC-3, 48.0 KHz, 6 ch, 448 Kbps, CBR (Russian) Лицензия
Аудио 2: AC-3, 48.0 KHz, 2.0 ch, 192 Kbps, CBR | Авторский (Смирнов (С переводом песен))
Аудио 3: AC-3, 48.0 KHz, 6 ch, 448 Kbps, CBR (ENG)
Субтитры: Русские (форсированные, полные), английские
General
Unique ID : 245328411598995555963362469166756680045 (0xB890888D9B4E7190A83AA5A52B9C516D)
Complete name : D:\Valerian.and.the.City.of.a.Thousand.Planets.2017.2xRus.BDRip.AVC.ExKinoRay.mkv
Format : Matroska
Format version : Version 2
File size : 2.94 GiB
Duration : 2 h 17 min
Overall bit rate : 3 069 kb/s
Movie name : Valerian and the City of a Thousand Planets 2017 from ExKinoRay
Encoded date : UTC 2017-12-21 23:38:18
Writing application : mkvmerge v5.6.0 ('Kenya Kane') built on May 27 2012 16:44:04
Writing library : libebml v1.2.3 + libmatroska v1.3.0

Video
ID : 1
Format : AVC
Format/Info : Advanced Video Codec
Format profile : High@L4.1
Format settings, CABAC : Yes
Format settings, ReFrames : 12 frames
Codec ID : V_MPEG4/ISO/AVC
Duration : 2 h 17 min
Bit rate : 1 985 kb/s
Width : 1 024 pixels
Height : 428 pixels
Display aspect ratio : 2.40:1
Frame rate mode : Constant
Frame rate : 23.976 (23976/1000) FPS
Color space : YUV
Chroma subsampling : 4:2:0
Bit depth : 8 bits
Scan type : Progressive
Bits/(Pixel*Frame) : 0.189
Stream size : 1.84 GiB (63%)
Title : Enigma
Writing library : x264 core 152 r2851 ba24899
Encoding settings : cabac=1 / ref=12 / deblock=1:-3:-3 / analyse=0x3:0x113 / me=umh / subme=10 / psy=1 / psy_rd=1.05:0.05 / mixed_ref=1 / me_range=32 / chroma_me=1 / trellis=2 / 8x8dct=1 / cqm=0 / deadzone=21,11 / fast_pskip=1 / chroma_qp_offset=-3 / threads=12 / lookahead_threads=3 / sliced_threads=0 / nr=0 / decimate=0 / interlaced=0 / bluray_compat=0 / constrained_intra=0 / bframes=12 / b_pyramid=2 / b_adapt=2 / b_bias=0 / direct=3 / weightb=1 / open_gop=0 / weightp=2 / keyint=240 / keyint_min=23 / scenecut=40 / intra_refresh=0 / rc_lookahead=40 / rc=2pass / mbtree=0 / bitrate=1985 / ratetol=1.0 / qcomp=0.60 / qpmin=0 / qpmax=51 / qpstep=4 / cplxblur=20.0 / qblur=0.5 / vbv_maxrate=50000 / vbv_bufsize=62500 / nal_hrd=none / filler=0 / ip_ratio=1.40 / pb_ratio=1.30 / aq=3:0.90
Language : English
Default : Yes
Forced : No
Color range : Limited
Color primaries : BT.709
Transfer characteristics : BT.709
Matrix coefficients : BT.709

Audio #1
ID : 2
Format : AC-3
Format/Info : Audio Coding 3
Mode extension : CM (complete main)
Format settings, Endianness : Big
Codec ID : A_AC3
Duration : 2 h 17 min
Bit rate mode : Constant
Bit rate : 448 kb/s
Channel(s) : 6 channels
Channel positions : Front: L C R, Side: L R, LFE
Sampling rate : 48.0 kHz
Frame rate : 31.250 FPS (1536 spf)
Compression mode : Lossy
Stream size : 439 MiB (15%)
Title : Dub (Лицензия)
Language : Russian
Default : Yes
Forced : No

Audio #2
ID : 3
Format : AC-3
Format/Info : Audio Coding 3
Mode extension : CM (complete main)
Format settings, Endianness : Big
Codec ID : A_AC3
Duration : 2 h 17 min
Bit rate mode : Constant
Bit rate : 192 kb/s
Channel(s) : 2 channels
Channel positions : Front: L R
Sampling rate : 48.0 kHz
Frame rate : 31.250 FPS (1536 spf)
Compression mode : Lossy
Stream size : 188 MiB (6%)
Title : AVO (Smirnov)
Language : Russian
Default : No
Forced : No

Audio #3
ID : 4
Format : AC-3
Format/Info : Audio Coding 3
Mode extension : CM (complete main)
Format settings, Endianness : Big
Codec ID : A_AC3
Duration : 2 h 17 min
Bit rate mode : Constant
Bit rate : 448 kb/s
Channel(s) : 6 channels
Channel positions : Front: L C R, Side: L R, LFE
Sampling rate : 48.0 kHz
Frame rate : 31.250 FPS (1536 spf)
Compression mode : Lossy
Stream size : 439 MiB (15%)
Language : English
Default : No
Forced : No

Text #1
ID : 5
Format : UTF-8
Codec ID : S_TEXT/UTF8
Codec ID/Info : UTF-8 Plain Text
Title : Forced
Language : Russian
Default : Yes
Forced : No

Text #2
ID : 6
Format : UTF-8
Codec ID : S_TEXT/UTF8
Codec ID/Info : UTF-8 Plain Text
Title : Ful
Language : Russian
Default : No
Forced : No

Text #3
ID : 7
Format : UTF-8
Codec ID : S_TEXT/UTF8
Codec ID/Info : UTF-8 Plain Text
Title : Forced
Language : English
Default : No
Forced : No

Text #4
ID : 8
Format : UTF-8
Codec ID : S_TEXT/UTF8
Codec ID/Info : UTF-8 Plain Text
Title : Full
Language : English
Default : No
Forced : No

Menu
00:00:00.000 : en:Chapter 01
00:12:35.713 : en:Chapter 02
00:17:29.590 : en:Chapter 03
00:23:35.789 : en:Chapter 04
00:32:45.838 : en:Chapter 05
00:41:19.143 : en:Chapter 06
00:47:15.666 : en:Chapter 07
00:56:12.410 : en:Chapter 08
01:04:25.695 : en:Chapter 09
01:11:27.908 : en:Chapter 10
01:20:25.070 : en:Chapter 11
01:28:13.705 : en:Chapter 12
01:35:53.914 : en:Chapter 13
01:41:35.047 : en:Chapter 14
01:53:37.852 : en:Chapter 15
02:02:22.585 : en:Chapter 16
Релиз от:

Автор релиза: pb.wtf



Скачать Валериан и город тысячи планет через торрент http://i98.fastpic.ru/big/2017/1119/e7/ee527d5af2962dfd0a6a99ba0881fae7.jpg Скачать, смотреть онлайн Валериан и город тысячи планет бесплантно в хорошем качестве Описание: 2700 год. Валериан и Лорелин — космические спецагенты, которые по долгу службы впутались в подозрительное дело и стали невольными ... 9.7 10 26
Info! Золотая раздача, скачанное не засчитывается.
Торрент: Зарегистрирован [2017-12-22 01:19] · скачан: 242 раз
Статус: √ проверено
Размер: 2.94 GB
Как cкачать? Как скачать Валериан и город тысячи планет через торрент | UTorrent

% Раздел Тема Автор DL S | L
Фильмы 2017 [DVDrip, WEB-DLRip, HDrip] (DUB, MVO) [ 2.47 GB ] Валериан и город тысячи планет / Valerian and the City of a Thousand Planets [2017 BDRip-AVC] [Локализованный видеоряд] - ExKinoRay Enigma2010 Скачать
1 | 0
Фильмы с авторской озвучкой [ 1.45 GB ] Валериан и город тысячи планет / Valerian and the City of a Thousand Planets [2017 BDRip] AVO [Смирнов] - ExKinoRay Enigma2010 Скачать
1 | 0


Последний раз редактировалось: Enigma2010 (2017-12-22 01:19), всего редактировалось 4 раз(а)

28-11-2019 20:33  

Отключить всю рекламу на сайте

26-11-2017 23:39 Валериан и город тысячи планет Скачать торрент  

Замена на дублированный перевод с канала IPTV. Добавлен авторский (полный перевод).pb.wtf



28-11-2017 03:30 Валериан и город тысячи планет Скачать торрент  

Замена на iTunespb.wtf



28-11-2017 06:47 Валериан и город тысячи планет Скачать торрент  

Enigma2010, Я так понимаю вы с ExKinoRay
Здесь форсированые субтитры исправлены или как у гуся не пойми как)))pb.wtf



28-11-2017 12:39 Валериан и город тысячи планет Скачать торрент  

еnvy писал(а):

Enigma2010, Я так понимаю вы с ExKinoRay
Здесь форсированые субтитры исправлены или как у гуся не пойми как)))

У меня нормальные сабы, всё синхронно. Да и у птицы также)pb.wtf



29-11-2017 06:40 Валериан и город тысячи планет Скачать торрент  

Enigma2010 писал(а):

Да и у птицы также)

Неа. Скачивал смотрел.pb.wtf



22-12-2017 01:19 Валериан и город тысячи планет Скачать торрент  

Замена на лицензию.pb.wtf



    Дорогой пользователь! Огромная просьба, поблагодарите релизера, оцените раздачу и оставьте свои комментарий, если Вы скачали Валериан и город тысячи планет через торрент бесплатно!
    Комментировать посты могут только пользователи прошедшие не сложную регистрацию
    Показать сообщения:    

    Валериан и город тысячи планет через торрент
    Скачать бесплатно Валериан и город тысячи планет
    Валериан и город тысячи планет скачать торрент
    Валериан и город тысячи планет смотреть онлайн
    Cкачать фильм Валериан и город тысячи планет бесплатно
    Валериан и город тысячи планет скачать торрент в хорошем качестве
    Валериан и город тысячи планет смотреть онлайн бесплатно в хорошем качестве


    Вы не можете начинать темы
    Вы не можете отвечать на сообщения
    Вы не можете редактировать свои сообщения
    Вы не можете удалять свои сообщения
    Вы не можете голосовать в опросах
    Вы не можете прикреплять файлы к сообщениям
    Вы можете скачивать файлы