Ссылка на приватное зеркало всего за 1$. Внимание количество ограничено!!!

iTunes

1+1

iTunes

мы

WEB-DL

1

iTunes

Чернобыль

iTunes

Ральф против интернета

Лицензия

ПШазам

Лицензия

Оно 2

Лицензия

30
pack

Вам бонус

ВАЖНО

!!Акция!!

Alien_RageХит недели

RePack

Resident Evil 21

ИГРА 18+

pack

RePack

jed

!!Акция!!

Alien_Rage

RePack

fifa19

RePack

Assassins Creed: Odyssey

RePack

NEED FOR SPEED™ PAYBACK

3 сезон

9 сезон

Бесстыжие 9 сезон

Все сериалы

все сериалы на PB.wtf

RePack

FAR CRY 5
Ребята, катастрофически не хватает 1900р. для оплаты серверов за Октябрь (всвязи с блокировками трафик упал в 3 раза), 1-2р., выручайте.
  

Моя дочь пропала / My Daughter Is Missing (Тамар Халперн) [2017 г., триллер, HDTVRip, Любительский (многоголосый)| Синема УС] pb.wtf

Моя дочь пропала через торрент pb.wtf

Раздают: 1 [ 0 KB/s ]
Размер: 1.37 GB | Добавлен: 2 года назад | Торрент скачан:159 раз
Скачать  

20-11-2017 05:42 Моя дочь пропала Скачать торрент  

Моя дочь пропала / My Daughter Is Missing
Год выпуска: 2017
Страна: США
Жанр: триллер
Продолжительность: 01:24:17
Перевод: Любительский (многоголосый)| Синема УС
Субтитры: Нет

Режиссер: Тамар Халперн

rating

В ролях: Миранда Рэйсон, Эммет Джей Скэнлэн, Софи Робертсон, Йована Стоилькович, Миодраг Радонич, Милена Павлович, Срджан Пантелич

Описание: Сара, бывший хакер, а теперь специалист по интернет-безопасности, приехала в Белград для участия в конференции по киберпреступности. В это время сербская картель, занимающаяся торговлей людьми, похищает дочь Сары и её подругу. Сможет ли она спасти девочек, пока не стало слишком поздно..?

Доп. информация: Реклама присутствует.

Качество: HDTVRip
Формат: AVI
Видео кодек: XviD
Аудио кодек: AC3
Видео: 720x400 (16:9), 23.976 fps, XviD ~1 927 kbps
Аудио#1: 48 kHz, AC3 Dolby Digital, 2/0 (L,R) ch, ~384 kbps
скриншот   скриншот   скриншот   скриншот  

General
Complete name : H:\релизы.торрентфайл\My Daughter Is Missing.2017.P.HDTVRip.14OOMB_KOSHARA.avi
Format : AVI
Format/Info : Audio Video Interleave
File size : 1.37 GiB
Duration : 1h 24mn
Overall bit rate : 2 321 Kbps
Writing application : VirtualDubMod 1.5.10.2 (build 2540/release)
Writing library : VirtualDubMod build 2540/release

Video
ID : 0
Format : MPEG-4 Visual
Format profile : Advanced Simple@L5
Format settings, BVOP : 2
Format settings, QPel : No
Format settings, GMC : No warppoints
Format settings, Matrix : Default (MPEG)
Codec ID : XVID
Codec ID/Hint : XviD
Duration : 1h 24mn
Bit rate : 1 928 Kbps
Width : 720 pixels
Height : 400 pixels
Display aspect ratio : 16:9
Frame rate : 23.976 fps
Color space : YUV
Chroma subsampling : 4:2:0
Bit depth : 8 bits
Scan type : Progressive
Compression mode : Lossy
Bits/(Pixel*Frame) : 0.279
Stream size : 1.14 GiB (83%)
Writing library : XviD 1.2.1 (UTC 2008-12-04)

Audio
ID : 1
Format : AC-3
Format/Info : Audio Coding 3
Mode extension : CM (complete main)
Format settings, Endianness : Big
Codec ID : 2000
Duration : 1h 24mn
Bit rate mode : Constant
Bit rate : 384 Kbps
Channel(s) : 2 channels
Channel positions : Front: L R
Sampling rate : 48.0 KHz
Bit depth : 16 bits
Compression mode : Lossy
Stream size : 232 MiB (17%)
Alignment : Split accross interleaves
Interleave, duration : 42 ms (1.00 video frame)
Interleave, preload duration : 500 ms

pb.wtf



Скачать Моя дочь пропала через торрент http://i98.fastpic.ru/big/2017/1120/bd/f517399d8df294fa4a57bd9327cf89bd.png Скачать фильм Моя дочь пропала через торрент бесплантно в хорошем качестве Описание: Сара, бывший хакер, а теперь специалист по интернет-безопасности, приехала в Белград для участия в конференции по ... 8.8 10 4
Торрент: Зарегистрирован [2017-11-20 05:42] · скачан: 159 раз
Статус: T временная
Размер: 1.37 GB
Как cкачать? Как скачать Моя дочь пропала через торрент | qTorrent

% Раздел Тема Автор DL S | L
T Фильмы (мультфильмы) cо спонсором показа (Новинки AVI/MKV) [ 2.6 GB ] Моя дочь пропала / My Daughter Is Missing [2017 HDTVRip 720p] MVO [Синема УС] bober100 Скачать
1 | 0

28-11-2019 20:33  

Отключить всю рекламу на сайте

20-11-2017 09:52 Моя дочь пропала Скачать торрент  

Сербская картель? Летающий самолету? pb.wtf



14-12-2017 17:24 Моя дочь пропала Скачать торрент  

    Дорогой пользователь! Огромная просьба, поблагодарите релизера, оцените раздачу и оставьте свои комментарий, если Вы скачали Моя дочь пропала через торрент бесплатно! Внесите свою лепту в развитие PiratBit!
    Комментировать посты могут только пользователи прошедшие не сложную регистрацию
    Показать сообщения:    

    Моя дочь пропала через торрент
    Скачать бесплатно Моя дочь пропала
    Моя дочь пропала скачать торрент
    Моя дочь пропала смотреть онлайн
    Cкачать фильм Моя дочь пропала бесплатно
    Моя дочь пропала скачать торрент в хорошем качестве
    Моя дочь пропала смотреть онлайн бесплатно в хорошем качестве


    Вы не можете начинать темы
    Вы не можете отвечать на сообщения
    Вы не можете редактировать свои сообщения
    Вы не можете удалять свои сообщения
    Вы не можете голосовать в опросах
    Вы не можете прикреплять файлы к сообщениям
    Вы можете скачивать файлы