Ссылка на приватное зеркало всего за 1$. Внимание количество ограничено!!!

OK

1+1

iTunes

мы

OK

1

WEB-DLRip

Джокер

Пифагор

Ведьмак / The Witcher сериал

iTunes

ПШазам

ОК

Оно 2

iTunes

30
pack

Вам бонус

ВАЖНО

!!Акция!!

Alien_RageХит недели

RePack

Resident Evil 21

ИГРА 18+

pack

RePack

jed

RePack

fifa19

RePack

Assassins Creed: Odyssey

RePack

NEED FOR SPEED™ PAYBACK

4 сезон

9 сезон

Бесстыжие 9 сезон

Все сериалы

все сериалы на PB.wtf

RePack

FAR CRY 5
  

Моя дочь пропала / My Daughter Is Missing (Тамар Халперн) [2017, триллер, HDTVRip 720p] MVO [Синема УС] pb.wtf

Моя дочь пропала через торрент pb.wtf

Размер: 2.6 GB | Добавлен: 2 года 2 мес. назад | Торрент скачан:71 раз
Скачать  

20-11-2017 06:31 Моя дочь пропала Скачать торрент  

Моя дочь пропала / My Daughter Is MissingГод выпуска: 2017
Страна: США
Жанр: триллер
Продолжительность: 01:24:17
Перевод: Любительский (многоголосый) | Синема УС
Субтитры: отсутствуют

Режиссер: Тамар Халперн

rating

В ролях:

Миранда Рэйсон, Эммет Джей Скэнлэн, Софи Робертсон, Йована Стоилькович, Миодраг Радонич, Милена Павлович, Срджан Пантелич

Описание:

Сара, бывший хакер, а теперь специалист по интернет-безопасности, приехала в Белград для участия в конференции по киберпреступности. В это время сербская картель, занимающаяся торговлей людьми, похищает дочь Сары и её подругу. Сможет ли она спасти девочек, пока не стало слишком поздно..?

Качество: HDTVRip 720p
Формат: MKV
Видео кодек: H.264
Аудио кодек: AC3

Видео: 4038 Kb/s, 1280x720
Аудио: 48 kHz, AC3 Dolby Digital, 2/0 (L,R) ch, ~384 kbps



Дата премьеры (мир): 1 июня 2017
скриншот   скриншот   скриншот  

Общее
Уникальный идентификатор : 216329731994321886307785998343652873737 (0xA2BF974350EF7CB4A5736548EF259609)
Полное имя : D:\My Daughter Is Missing.2017.P.HDTV.72Op_KOSHARA.mkv
Формат : Matroska
Версия формата : Version 2
Размер файла : 2,60 Гбайт
Продолжительность : 1 ч. 24 м.
Режим общего битрейта : Переменный
Общий поток : 4424 Кбит/сек
Дата кодирования : UTC 2017-11-18 18:56:58
Программа кодирования : mkvmerge v8.3.0 ('Over the Horizon') 64bit
Библиотека кодирования : libebml v1.3.1 + libmatroska v1.4.2

Видео
Идентификатор : 1
Формат : AVC
Формат/Информация : Advanced Video Codec
Профиль формата : High@L4.1
Параметр CABAC формата : Да
Параметр ReFrames формата : 9 кадров
Идентификатор кодека : V_MPEG4/ISO/AVC
Продолжительность : 1 ч. 24 м.
Вид битрейта : Переменный
Битрейт : 4038 Кбит/сек
Максимальный битрейт : 4500 Кбит/сек
Ширина : 1280 пикселей
Высота : 720 пикселей
Соотношение сторон : 16:9
Режим частоты кадров : Постоянный
Частота кадров : 23,976 (24000/1001) кадра/сек
Стандарт вещания : Component
Цветовое пространство : YUV
Субдискретизация насыщенности : 4:2:0
Битовая глубина : 8 бит
Тип развёртки : Прогрессивная
Бит/(Пиксели*Кадры) : 0.183
Размер потока : 2,38 Гбайт (91%)
Default : Да
Forced : Нет
Цветовой диапазон : Limited
Основные цвета : BT.709
Характеристики трансфера : BT.709
Коэффициенты матрицы : BT.709

Аудио
Идентификатор : 2
Формат : AC-3
Формат/Информация : Audio Coding 3
Расширение режима : CM (complete main)
Параметр Endianness формата : Big
Идентификатор кодека : A_AC3
Продолжительность : 1 ч. 24 м.
Вид битрейта : Постоянный
Битрейт : 384 Кбит/сек
Каналы : 2 канала
Расположение каналов : Front: L R
Частота : 48,0 КГц
Частота кадров : 31,250 кадров/сек (1536 spf)
Метод сжатия : С потерями
Размер потока : 232 Мбайт (9%)
Default : Да
Forced : Нет
pb.wtf



Скачать Моя дочь пропала через торрент http://s013.radikal.ru/i323/1711/6d/b49387de767f.png Скачать фильм Моя дочь пропала через торрент бесплантно в хорошем качестве Описание: Сара, бывший хакер, а теперь специалист по интернет-безопасности, приехала в Белград для участия в конференции по ... 10 10 5
Торрент: Зарегистрирован [2017-11-20 06:31] · скачан: 71 раз
Статус: T временная
Размер: 2.6 GB
Как cкачать? Как скачать Моя дочь пропала через торрент | qTorrent

% Раздел Тема Автор DL S | L
T Релизы по Парсеру [Игры, Сериалы и Фильмы и другое...] [ 1.37 GB ] Моя дочь пропала / My Daughter Is Missing [2017 HDTVRip Любительский | Синема УС] oleg8 Скачать
1 | 0

28-11-2019 20:33  

Отключить всю рекламу на сайте

    Дорогой пользователь! Огромная просьба, поблагодарите релизера, оцените раздачу и оставьте свои комментарий, если Вы скачали Моя дочь пропала через торрент бесплатно! Внесите свою лепту в развитие PiratBit!
    Комментировать посты могут только пользователи прошедшие не сложную регистрацию
    Показать сообщения:    

    Моя дочь пропала через торрент
    Скачать бесплатно Моя дочь пропала
    Моя дочь пропала скачать торрент
    Моя дочь пропала смотреть онлайн
    Cкачать фильм Моя дочь пропала бесплатно
    Моя дочь пропала скачать торрент в хорошем качестве
    Моя дочь пропала смотреть онлайн бесплатно в хорошем качестве


    Вы не можете начинать темы
    Вы не можете отвечать на сообщения
    Вы не можете редактировать свои сообщения
    Вы не можете удалять свои сообщения
    Вы не можете голосовать в опросах
    Вы не можете прикреплять файлы к сообщениям
    Вы можете скачивать файлы