Всегда рабочее зеркало просто перед .vidak.icu напиши любое слово или цифру, Пример http://au5.vidak.icu

>

7.4

iTunes

7.4

2 сезон

6.6

iTunes

1

7.4

2 сезон

7.2

iTunes

6.0

MVO

13

6.1

iTunes

8.3

Пиратка

30

ULTIMATE

pack

9.9

Лицензия

ВАЖНО

ИГРА 18+

pack

7.3

RePack

MK11

7.7

RePack

jed

7.8

RePack

fifa19

8.5

RePack

RDR2

RePack

NEED FOR SPEED™ PAYBACK

1 сезон

9 сезон

Бесстыжие 9 сезон

Все сериалы

все сериалы на PB.wtf

RePack

FAR CRY 5

Anonymous, добрый вечер, мы катастрофически не успеваем собрать деньги на оплату серверов, помогите нам пожалуйста 5,10,15р., для нас важна любая помощь . В качестве благодарности мы отключим Вам всю рекламу на сайте (укажите свой ник в строку Ваше имя)!

×
  
Magnet ссылка

Белые ночи (Иван Пырьев) [1959, СССР, драма, мелодрама, DVDRip от AVP Studio] pb.wtf

Белые ночи через торрент pb.wtf

Размер: 745 MB | Добавлен: 4 года 2 мес. назад | Торрент скачан:14 раз
Смотреть онлайн Белые ночи | Скачать    Ребята, помогите собрать деньги на оплату серверов!!!

20-11-2017 08:34 Белые ночи Скачать торрент  

Белые ночи
Страна: СССР
Производство: Мосфильм

Жанр: драма, мелодрама
Год выпуска: 1959
Продолжительность: 01:30:24

Перевод: Не требуется
Cубтитры: нет
Оригинальная аудиодорожка: русский

Режиссер: Иван Пырьев

В ролях:
Людмила Марченко, Олег Стриженов, Анатолий Федоринов, Вера Попова, Светлана Харитонова...
Об актёрах подробней

Описание:
Романтическая драма по одноименной повести Ф.М.Достоевского.
События излагаются от лица рассказчика – Мечтателя (Олег Стриженов). Петербург сороковых годов 19 века. Лето, белые ночи. В одну из таких ночей Мечтатель прогуливался по набережной Невы. Здесь происходит его знакомство с Настенькой (Людмила Марченко). Молодые люди рассказывают друг другу о себе, своей жизни…

Источник: DVD5 R5
Качество видео: DVDRip
Формат видео: AVI

Видео: 640x480 (4:3), 25 fps, XviD ~ 1015 kbps avg, 0.132 bit/pixel
Аудио: 48 kHz, MP3 2.0, 128 kbps

Раздача от:
Общее
Полное имя : Belye.nochi.1959.DVDRip-745_[New-team]_by_AVP_Studio.avi
Формат : AVI
Формат/Информация : Audio Video Interleave
Размер файла : 745 Мбайт
Продолжительность : 1 ч. 30 м.
Общий поток : 1153 Кбит/сек
Программа кодирования : VirtualDubMod 1.5.10.3 | www.virtualdub-fr.org || (build 2550/release)
Библиотека кодирования : VirtualDubMod build 2550/release

Видео
Идентификатор : 0
Формат : MPEG-4 Visual
Профиль формата : Advanced Simple@L5
Параметр BVOP формата : 1
Параметр QPel формата : Нет
Параметр GMC формата : Без точки перехода
Параметр матрицы формата : Выборочная
Идентификатор кодека : XVID
Идентификатор кодека/Подсказка : XviD
Продолжительность : 1 ч. 30 м.
Битрейт : 1015 Кбит/сек
Ширина : 640 пикселей
Высота : 480 пикселей
Соотношение сторон : 4:3
Частота кадров : 25,000 кадров/сек
Цветовое пространство : YUV
Субдискретизация насыщенности : 4:2:0
Битовая глубина : 8 бит
Тип развёртки : Прогрессивная
Метод сжатия : С потерями
Бит/(Пиксели*Кадры) : 0.132
Размер потока : 656 Мбайт (88%)
Библиотека кодирования : XviD 73

Аудио
Идентификатор : 1
Формат : MPEG Audio
Версия формата : Version 1
Профиль формата : Layer 3
Идентификатор кодека : 55
Идентификатор кодека/Подсказка : MP3
Продолжительность : 1 ч. 30 м.
Вид битрейта : Постоянный
Битрейт : 128 Кбит/сек
Каналы : 2 канала
Частота : 48,0 КГц
Метод сжатия : С потерями
Размер потока : 82,8 Мбайт (11%)
Выравнивание : Соединение по промежуткам
Продолжительность промежутка : 40 мс. (1,00 видеокадр)
Время предзагрузки промежутка : 504 мс.
Библиотека кодирования : LAME3.99r
Настройки программы : -m s -V 4 -q 2 -lowpass 17 -b 128
pb.wtf



Скачать Белые ночи через торрент http://s018.radikal.ru/i516/1711/b1/d7e7c66866a4.png Скачать, смотреть онлайн Белые ночи бесплантно в хорошем качестве Описание:Романтическая драма по одноименной повести Ф.М.Достоевского.События излагаются от лица рассказчика – Мечтателя (Олег Стриженов). ... 10 10 1
Info! Золотая раздача, скачанное не засчитывается.
Торрент: Зарегистрирован [2017-11-20 08:34] · скачан: 14 раз
Статус: √ проверено
Размер: 745 MB
Как cкачать? Как скачать Белые ночи через торрент | UTorrent

% Раздел Тема Автор DL S | L
Русские порно фильмы [ 3.88 GB ] Белые ночи Санкт-Петербурга. Ночь 4 [2002 Vignettes Public DVD5] Леонид Ильич Скачать
2 | 0
Русские порно фильмы [ 5.15 GB ] Экстаз белых ночей [2004 Русский сексГрупповухаСекс на природе DVD9] Леонид Ильич Скачать
1 | 0
T Наши фильмы 2017 [ 1.46 GB ] Белые ночи [2017 WEB-DLRip] bober100 Скачать
1 | 0
Наши сериалы [ 2.84 GB ] Фантазия белых ночей / Ромео и Джульетта холодной войны / Серии: 1-4 из 4 [2015 WEB-DL 720p] bober100 Скачать
1 | 0
Наши сериалы [ 2.54 GB ] Фантазия белых ночей / Ромео и Джульетта холодной войны / Серии: 1-4 из 4 [2015 WEB-DLRip] bober100 Скачать
1 | 0
Кино СССР [ 1.09 GB ] Белые ночи [1959 СССР DVDRip-AVC от AVP Studio] AVP Studio Скачать
1 | 0
Кино СССР [ 1.09 GB ] Белые ночи [1959 СССР DVDRip от AVP Studio] AVP Studio Скачать
1 | 0

28-11-2019 20:33  

Отключить всю рекламу на сайте

    Дорогой пользователь! Огромная просьба, поблагодарите релизера, оцените раздачу и оставьте свои комментарий, если Вы скачали Белые ночи через торрент бесплатно!
    Комментировать посты могут только пользователи прошедшие не сложную регистрацию
    Показать сообщения:    

    Белые ночи через торрент
    Скачать бесплатно Белые ночи
    Белые ночи скачать торрент
    Белые ночи смотреть онлайн
    Cкачать фильм Белые ночи бесплатно
    Белые ночи скачать торрент в хорошем качестве
    Белые ночи смотреть онлайн бесплатно в хорошем качестве


    Вы не можете начинать темы
    Вы не можете отвечать на сообщения
    Вы не можете редактировать свои сообщения
    Вы не можете удалять свои сообщения
    Вы не можете голосовать в опросах
    Вы не можете прикреплять файлы к сообщениям
    Вы можете скачивать файлы