1 сезон

1 сезон

iTunes

1

КиноПоиск HD

Кинопоиск HD

iTunes

13

1 сезон

RePack

30

Ultimate

ВАЖНО

ИГРА 18+

pack

RePack

MK11
pack

Легкие деньги

RePack

jed

RePack

fifa19

RePack

RDR2

RePack

NEED FOR SPEED™ PAYBACK

4 сезон

9 сезон

Бесстыжие 9 сезон

Все сериалы

все сериалы на PB.wtf

RePack

FAR CRY 5
  
Magnet ссылка

Чумовые боты / Kinky Boots (Джулиан Джаррольд) [2005 г, драма, комедия, музыка, HDRip] MVO pb.wtf

Чумовые боты через торрент pb.wtf

Размер: 1.45 GB | Добавлен: 3 года 4 мес. назад | Торрент скачан:41 раз
Скачать  

20-11-2017 16:53 Чумовые боты Скачать торрент  

Чумовые боты / Kinky Boots
Год выпуска: 2005
Страна: США, Великобритания
Жанр: драма, комедия, музыка
Продолжительность: 01:46:57
Перевод: Профессиональный (многоголосый)

Режиссер: Джулиан Джаррольд

rating

В ролях: Джоэл Эдгертон, Чиветел Эджиофор, Сара-Джейн Поттс, Ник Фрост, Линда Бэссет, Джемайма Рупер, Роберт Пью, Ивэн Хупер, Стивен Маркус, Мона Хэммонд

Описание: Чарли Прайс всегда был записным неудачником - неудивительно, что именно ему суждено было довести до ручки существовавший десятилетиями семейный бизнес - обувную фабрику. Крах предприятия, не выдерживающего конкуренции с современными заводами, неминуем. Но именно в этот момент происходит чудо, которого бедняга уже и не ждал. Причем, чудо в перьях. Буквально! Оно появляется на пороге Чарли в образе звезды кабаре Саймона, здоровенного чернокожего певца-трансвестита, обожающего вычурные наряды. Наглый как танк и обладающий весьма эксцентричным вкусом, Саймон (также известный под творческим псевдонимом Лола) и его коллеги нуждаются в большой партии диковинной сценической обуви вроде розовых сапог на огромных каблуках. И Чарли оказывается единственным, кто способен выполнить этот странный заказ!

Качество: HDRip
Формат: AVI
Видео: XviD, 1740 Кбит/с, 720x304, 23.976 кадр/с
Аудио: AC3, 2 ch, 192 Кбит/с
Релиз от: Koenig
скриншот   скриншот   скриншот   скриншот   скриншот   скриншот  

Общее
Полное имя : Kinky.Boots.2005.HDRip.avi
Формат : AVI
Формат/Информация : Audio Video Interleave
Размер файла : 1,45 Гбайт
Продолжительность : 1 ч. 46 м.
Общий поток : 1941 Кбит/сек
Программа кодирования : VirtualDubMod 1.5.10.2 (build 2540/release)
Библиотека кодирования : VirtualDubMod build 2540/release

Видео
Идентификатор : 0
Формат : MPEG-4 Visual
Профиль формата : Advanced Simple@L5
Параметр BVOP формата : 1
Параметр QPel формата : Нет
Параметр GMC формата : Без точки перехода
Параметр матрицы формата : Выборочная
Идентификатор кодека : XVID
Идентификатор кодека/Подсказка : XviD
Продолжительность : 1 ч. 46 м.
Битрейт : 1740 Кбит/сек
Ширина : 720 пикселей
Высота : 304 пикселя
Соотношение сторон : 2,35:1
Частота кадров : 23,976 (24000/1001) кадра/сек
Цветовое пространство : YUV
Субдискретизация насыщенности : 4:2:0
Битовая глубина : 8 бит
Тип развёртки : Прогрессивная
Метод сжатия : С потерями
Бит/(Пиксели*Кадры) : 0.332
Размер потока : 1,30 Гбайт (90%)
Библиотека кодирования : XviD 65

Аудио
Идентификатор : 1
Формат : AC-3
Формат/Информация : Audio Coding 3
Параметр Endianness формата : Big
Идентификатор кодека : 2000
Продолжительность : 1 ч. 46 м.
Вид битрейта : Постоянный
Битрейт : 192 Кбит/сек
Каналы : 2 канала
Расположение каналов : Front: L R
Частота : 48,0 КГц
Частота кадров : 31,250 кадров/сек (1536 spf)
Битовая глубина : 16 бит
Метод сжатия : С потерями
Размер потока : 147 Мбайт (10%)
Выравнивание : Разделение по промежуткам
Продолжительность промежутка : 42 мс. (1,00 видеокадр)
Время предзагрузки промежутка : 500 мс.
ServiceKind/String : Complete Main

pb.wtf



Скачать Чумовые боты через торрент https://pic1.kartinco.top/images/11/bq1el.jpg Скачать фильм Чумовые боты через торрент бесплантно в хорошем качестве Описание: Чарли Прайс всегда был записным неудачником - неудивительно, что именно ему суждено было довести до ручки существовавший ... 10 10 1
Торрент: Зарегистрирован [2017-11-20 16:53] · скачан: 41 раз
Статус: √ проверено
Размер: 1.45 GB
Как cкачать? Как скачать Чумовые боты через торрент | UTorrent

28-11-2019 20:33  

Отключить всю рекламу на сайте

    Дорогой пользователь! Огромная просьба, поблагодарите релизера, оцените раздачу и оставьте свои комментарий, если Вы скачали Чумовые боты через торрент бесплатно! Внесите свою лепту в развитие PiratBit!
    Комментировать посты могут только пользователи прошедшие не сложную регистрацию
    Показать сообщения:    

    Чумовые боты через торрент
    Скачать бесплатно Чумовые боты
    Чумовые боты скачать торрент
    Чумовые боты смотреть онлайн
    Cкачать фильм Чумовые боты бесплатно
    Чумовые боты скачать торрент в хорошем качестве
    Чумовые боты смотреть онлайн бесплатно в хорошем качестве


    Вы не можете начинать темы
    Вы не можете отвечать на сообщения
    Вы не можете редактировать свои сообщения
    Вы не можете удалять свои сообщения
    Вы не можете голосовать в опросах
    Вы не можете прикреплять файлы к сообщениям
    Вы можете скачивать файлы