2 сезон

iTunes

1 сезон

1

iTunes

iTunes

iTunes

1 сезон

RePack

30

ИГРА 18+

pack

ВАЖНО

!!Акция!!

Alien_RageХит недели

RePack

MK11
pack

Забери бонус

RePack

jed

!!Акция!!

Alien_Rage

RePack

fifa19

RePack

Assassins Creed: Odyssey

RePack

NEED FOR SPEED™ PAYBACK

4 сезон

9 сезон

Бесстыжие 9 сезон

Все сериалы

все сериалы на PB.wtf

RePack

FAR CRY 5
  

Не убивай его / Don't Kill It (Майк Мендез) [2016, ужасы, фэнтези, BDRip 1080p] MVO [КОЛОБОК] pb.wtf

Не убивай его через торрент pb.wtf

Размер: 6.01 GB | Добавлен: 2 года 11 мес. назад | Торрент скачан:133 раза
Скачать  

20-11-2017 18:30 Не убивай его Скачать торрент  

Не убивай его / Don't Kill ItГод выпуска: 2016
Страна: США
Жанр: ужасы, фэнтези
Продолжительность: 01:23:46
Перевод: Любительский (многоголосый) - [КОЛОБОК]
Субтитры: отсутствуют

Режиссер: Майк Мендез

rating

В ролях:

Дольф Лундгрен, Кристина Клебе, Билли Слотер, Элисса Бри, Роксанна Майклс, Майлз Долеак, Майкл Аарон Миллиган, Аарон МакФерсон, Эмили Бробст, Тони Бентли

Описание:

В тихий маленький городок в Миссисипи заявляется древний демон и устраивает веселье. Но на каждого вредного демона найдётся свой бесстрашный герой.


Качество: BDRip 1080p
Формат: MKV
Видео кодек: H.264
Аудио кодек: AC3

Видео: MPEG-4 AVC, 1920x808, ~ 9745 Кбит/с
Аудио#1: 48 kHz, AC3, 2 ch, 192 kbps | RUS
Аудио#2: 48 kHz, AC3, 6 ch, 384 kbps | ENG

скриншот   скриншот   скриншот   скриншот  

Общее
Уникальный идентификатор : 215247764404704042948660099760934891224 (0xA1EF362466C8E0688A299AC07B682ED8)
Полное имя : C:UsersAlexsandrDesktopDon't Kill ItDon't Kill It.2016.BDRip1080p.ExKinoRay.mkv
Формат : Matroska
Версия формата : Version 4 / Version 2
Размер файла : 6,01 Гбайт
Продолжительность : 1 ч. 23 м.
Общий поток : 10,3 Мбит/сек
Дата кодирования : UTC 2017-11-20 14:31:12
Программа кодирования : mkvmerge v15.0.0 ('Duel with the Devil') 64-bit
Библиотека кодирования : libebml v1.3.5 + libmatroska v1.4.5

Видео
Идентификатор : 1
Формат : AVC
Формат/Информация : Advanced Video Codec
Профиль формата : High@L4.1
Параметр CABAC формата : Да
Параметр RefFrames формата : 5 кадров
Идентификатор кодека : V_MPEG4/ISO/AVC
Продолжительность : 1 ч. 23 м.
Битрейт : 9745 Кбит/сек
Ширина : 1920 пикселей
Высота : 808 пикселей
Соотношение сторон : 2,40:1
Режим частоты кадров : Постоянный
Частота кадров : 23,976 кадра/сек
Цветовое пространство : YUV
Субдискретизация насыщенности : 4:2:0
Битовая глубина : 8 бит
Тип развёртки : Прогрессивная
Бит/(Пиксели*Кадры) : 0.262
Размер потока : 5,68 Гбайт (94%)
Библиотека кодирования : x264 core 148 r2744 b97ae06
Настройки программы : cabac=1 / ref=5 / deblock=1:0:0 / analyse=0x3:0x133 / me=umh / subme=7 / psy=1 / psy_rd=1.00:0.00 / mixed_ref=1 / me_range=16 / chroma_me=1 / trellis=1 / 8x8dct=1 / cqm=0 / deadzone=21,11 / fast_pskip=0 / chroma_qp_offset=-2 / threads=25 / lookahead_threads=4 / sliced_threads=0 / nr=0 / decimate=1 / interlaced=0 / bluray_compat=0 / constrained_intra=0 / bframes=3 / b_pyramid=2 / b_adapt=1 / b_bias=0 / direct=1 / weightb=1 / open_gop=0 / weightp=2 / keyint=250 / keyint_min=23 / scenecut=40 / intra_refresh=0 / rc_lookahead=40 / rc=2pass / mbtree=1 / bitrate=9745 / ratetol=1.0 / qcomp=0.60 / qpmin=0 / qpmax=69 / qpstep=4 / cplxblur=20.0 / qblur=0.5 / ip_ratio=1.40 / aq=1:1.00
Язык : English
Default : Да
Forced : Нет

Аудио #1
Идентификатор : 2
Формат : AC-3
Формат/Информация : Audio Coding 3
Параметр Endianness формата : Big
Идентификатор кодека : A_AC3
Продолжительность : 1 ч. 23 м.
Вид битрейта : Постоянный
Битрейт : 192 Кбит/сек
Каналы : 2 канала
Расположение каналов : Front: L R
Частота : 48,0 КГц
Частота кадров : 31,250 кадров/сек (1536 SPF)
Битовая глубина : 16 бит
Метод сжатия : С потерями
Размер потока : 115 Мбайт (2%)
Заголовок : rus
Default : Да
Forced : Нет

Аудио #2
Идентификатор : 3
Формат : AC-3
Формат/Информация : Audio Coding 3
Параметр Endianness формата : Big
Идентификатор кодека : A_AC3
Продолжительность : 1 ч. 23 м.
Вид битрейта : Постоянный
Битрейт : 384 Кбит/сек
Каналы : 6 каналов
Расположение каналов : Front: L C R, Side: L R, LFE
Частота : 48,0 КГц
Частота кадров : 31,250 кадров/сек (1536 SPF)
Битовая глубина : 16 бит
Метод сжатия : С потерями
Размер потока : 229 Мбайт (4%)
Заголовок : eng
Default : Нет
Forced : Нет

Меню
00:00:00.000 : en:00:00:00.000
00:03:15.237 : en:00:03:15.237
00:05:50.809 : en:00:05:50.809
00:12:32.085 : en:00:12:32.085
00:20:36.902 : en:00:20:36.902
00:26:30.422 : en:00:26:30.422
00:32:35.745 : en:00:32:35.745
00:37:33.418 : en:00:37:33.418
00:42:29.088 : en:00:42:29.088
00:49:55.409 : en:00:49:55.409
00:56:11.743 : en:00:56:11.743
00:59:15.177 : en:00:59:15.177
01:02:58.274 : en:01:02:58.274
01:09:04.265 : en:01:09:04.265
01:12:37.144 : en:01:12:37.144
01:18:10.811 : en:01:18:10.811

pb.wtf



Скачать Не убивай его через торрент http://s04.radikal.ru/i177/1711/85/ad1a1ffb1281.jpg Скачать фильм Не убивай его через торрент бесплантно в хорошем качестве Описание: В тихий маленький городок в Миссисипи заявляется древний демон и устраивает веселье. Но на каждого вредного демона найдётся свой ... 8.2 10 6
Торрент: Зарегистрирован [2017-11-20 18:30] · скачан: 133 раз
Статус: T временная
Размер: 6.01 GB
Как cкачать? Как скачать Не убивай его через торрент | qTorrent

28-11-2019 20:33  

Отключить всю рекламу на сайте

26-11-2017 12:17 Не убивай его Скачать торрент  

Фильм для тех кто любит кровищу и мясищу. Еле досмотрел. В принципе сразу было понятно чем всё это кровожадное кино кончится.pb.wtf



    Дорогой пользователь! Огромная просьба, поблагодарите релизера, оцените раздачу и оставьте свои комментарий, если Вы скачали Не убивай его через торрент бесплатно! Внесите свою лепту в развитие PiratBit!
    Комментировать посты могут только пользователи прошедшие не сложную регистрацию
    Показать сообщения:    

    Не убивай его через торрент
    Скачать бесплатно Не убивай его
    Не убивай его скачать торрент
    Не убивай его смотреть онлайн
    Cкачать фильм Не убивай его бесплатно
    Не убивай его скачать торрент в хорошем качестве
    Не убивай его смотреть онлайн бесплатно в хорошем качестве


    Вы не можете начинать темы
    Вы не можете отвечать на сообщения
    Вы не можете редактировать свои сообщения
    Вы не можете удалять свои сообщения
    Вы не можете голосовать в опросах
    Вы не можете прикреплять файлы к сообщениям
    Вы можете скачивать файлы