Ссылка на приватное зеркало нашего сайта всего за 1$. Внимание количество ограничено!!!

2 сезон

iTunes

1 сезон

1

iTunes

iTunes

iTunes

1 сезон

RePack

30

ИГРА 18+

pack

ВАЖНО

!!Акция!!

Alien_RageХит недели

RePack

MK11
pack

Забери бонус

RePack

jed

!!Акция!!

Alien_Rage

RePack

fifa19

RePack

Assassins Creed: Odyssey

RePack

NEED FOR SPEED™ PAYBACK

4 сезон

9 сезон

Бесстыжие 9 сезон

Все сериалы

все сериалы на PB.wtf

RePack

FAR CRY 5
  

Этот смутный объект желания / That Obscure Object of Desire (Луис Бунюэль) [1977, драма, комедия, BDRip 1080p by msltel] 2 x DVO pb.wtf

Этот смутный объект желания через торрент pb.wtf

Размер: 12.51 GB | Добавлен: 2 года 11 мес. назад | Торрент скачан:29 раз
Скачать  

21-11-2017 08:13 Этот смутный объект желания Скачать торрент  

Название: Этот смутный объект желания
Оригинальное название: That Obscure Object of Desire
Год выпуска: 1977
Страна: Франция, Испания
Жанр: драма, комедия
Продолжительность: 01:43:41
Перевод: профессиональный двухголосый

Режиссер: Луис Бунюэль
В ролях: Фернандо Рей, Кароль Буке, Анхела Молина, Жюльен Берто, Андре Вебер, Милена Вукотич, Мария Аскерино, Эллен Баль, Валери Бланко, Огюста Карьер

О фильме: Пожилой мужчина влюбляется в молоденькую девушку, которая, осознавая свою Влacть над ним, мучает и дразнит его, соблазняя и ускользая в последний момент. Роль девушки исполняют две актрисы, воплощающие разные стороны одной личности… Фильм снят по мотивам романа Пьера Луиса «Женщина и паяц» (La femme et le pantin, 1898).



Качество: BDRip 1080p
Формат: MKV
Видео: MPEG-4 AVC, 15.5 Mбит/с, 1804x1080, 24 кадр/с
Аудио 1: русский, DTS, 768 kbps, 2 ch [профессиональный двухголосый, R5, RUSCICO]
Аудио 1: русский, AC3, 192 kbps, 2 ch [профессиональный двухголосый, HTB+]
Аудио 2: французский, DTS, 768 kbps, 2 ch, 48 kHz [оригинал]
Субтитры 1: русские
Субтитры 2: английские
Неименованные главы/чаптеры.
Общее
Уникальный идентификатор : 230787097710812875388294576767205099112 (0xAD9FFA6D0405A53397E000224CC7C668)
Полное имя : D:\Video\Этот смутный объект желания.1977.BDRip.1080p by msltel.mkv
Формат : Matroska
Версия формата : Version 4 / Version 2
Размер файла : 12,5 Гбайт
Продолжительность : 1 ч. 43 м.
Общий поток : 17,3 Мбит/сек
Название фильма : Rip by msltel
Дата кодирования : UTC 2017-11-21 02:26:53
Программа кодирования : mkvmerge v8.2.0 ('World of Adventure') 64bit
Библиотека кодирования : libebml v1.3.1 + libmatroska v1.4.2

Видео
Идентификатор : 1
Формат : AVC
Формат/Информация : Advanced Video Codec
Профиль формата : High@L4.1
Настройки формата : CABAC / 4 Ref Frames
Параметр CABAC формата : Да
Параметр RefFrames формата : 4 кадра
Идентификатор кодека : V_MPEG4/ISO/AVC
Продолжительность : 1 ч. 43 м.
Битрейт : 15,5 Мбит/сек
Ширина : 1804 пикселя
Высота : 1080 пикселей
Соотношение сторон : 5:3
Режим частоты кадров : Постоянный
Частота кадров : 24,000 кадра/сек
Цветовое пространство : YUV
Субдискретизация насыщенности : 4:2:0
Битовая глубина : 8 бит
Тип развёртки : Прогрессивная
Бит/(Пиксели*Кадры) : 0.332
Размер потока : 11,3 Гбайт (90%)
Библиотека кодирования : x264 core 146 r2538 121396c
Настройки программы : cabac=1 / ref=4 / deblock=1:-3:-2 / analyse=0x3:0x113 / me=umh / subme=11 / psy=1 / psy_rd=1.00:0.15 / mixed_ref=1 / me_range=32 / chroma_me=1 / trellis=2 / 8x8dct=1 / cqm=0 / deadzone=21,11 / fast_pskip=0 / chroma_qp_offset=-3 / threads=6 / lookahead_threads=1 / sliced_threads=0 / nr=0 / decimate=1 / interlaced=0 / bluray_compat=0 / constrained_intra=0 / bframes=9 / b_pyramid=2 / b_adapt=2 / b_bias=0 / direct=1 / weightb=1 / open_gop=0 / weightp=2 / keyint=230 / keyint_min=23 / scenecut=40 / intra_refresh=0 / rc_lookahead=40 / rc=crf / mbtree=0 / crf=19.8 / qcomp=0.60 / qpmin=0 / qpmax=69 / qpstep=4 / vbv_maxrate=62500 / vbv_bufsize=78125 / crf_max=0.0 / nal_hrd=none / filler=0 / ip_ratio=1.40 / pb_ratio=1.30 / aq=1:1.00
Язык : French
Default : Да
Forced : Нет

Аудио #1
Идентификатор : 2
Формат : DTS
Формат/Информация : Digital Theater Systems
Идентификатор кодека : A_DTS
Продолжительность : 1 ч. 43 м.
Вид битрейта : Постоянный
Битрейт : 768 Кбит/сек
Каналы : 2 канала
Расположение каналов : Front: L R
Частота : 48,0 КГц
Частота кадров : 93,750 кадра/сек (512 SPF)
Битовая глубина : 16 бит
Метод сжатия : С потерями
Размер потока : 570 Мбайт (4%)
Заголовок : DVO R5, RUSCICO
Язык : Russian
Default : Да
Forced : Нет

Аудио #2
Идентификатор : 3
Формат : AC-3
Формат/Информация : Audio Coding 3
Идентификатор кодека : A_AC3
Продолжительность : 1 ч. 43 м.
Вид битрейта : Постоянный
Битрейт : 192 Кбит/сек
Каналы : 2 канала
Расположение каналов : Front: L R
Частота : 48,0 КГц
Частота кадров : 31,250 кадров/сек (1536 SPF)
Битовая глубина : 16 бит
Метод сжатия : С потерями
Размер потока : 142 Мбайт (1%)
Заголовок : DVO HTB+
Язык : Russian
ServiceKind/String : Complete Main
Default : Нет
Forced : Нет

Аудио #3
Идентификатор : 4
Формат : DTS
Формат/Информация : Digital Theater Systems
Идентификатор кодека : A_DTS
Продолжительность : 1 ч. 43 м.
Вид битрейта : Постоянный
Битрейт : 768 Кбит/сек
Каналы : 2 канала
Расположение каналов : Front: L R
Частота : 48,0 КГц
Частота кадров : 93,750 кадра/сек (512 SPF)
Битовая глубина : 16 бит
Метод сжатия : С потерями
Размер потока : 570 Мбайт (4%)
Заголовок : original
Язык : French
Default : Нет
Forced : Нет

Текст #1
Идентификатор : 5
Формат : UTF-8
Идентификатор кодека : S_TEXT/UTF8
Идентификатор кодека/Информация : UTF-8 Plain Text
Продолжительность : 1 ч. 40 м.
Битрейт : 65 бит/сек
ElementCount : 949
Размер потока : 48,0 Кбайт (0%)
Заголовок : русские
Язык : Russian
Default : Нет
Forced : Нет

Текст #2
Идентификатор : 6
Формат : UTF-8
Идентификатор кодека : S_TEXT/UTF8
Идентификатор кодека/Информация : UTF-8 Plain Text
Продолжительность : 1 ч. 40 м.
Битрейт : 48 бит/сек
ElementCount : 1025
Размер потока : 35,8 Кбайт (0%)
Заголовок : английские
Язык : English
Default : Нет
Forced : Нет

Меню
00:00:00.000 : :Chapter 01
00:13:01.083 : :Chapter 02
00:24:36.083 : :Chapter 03
00:38:44.583 : :Chapter 04
00:52:09.500 : :Chapter 05
01:04:45.125 : :Chapter 06
01:16:25.791 : :Chapter 07
01:32:42.541 : :Chapter 08
pb.wtf



Скачать Этот смутный объект желания через торрент http://s019.radikal.ru/i638/1711/9c/2b8d5ffeea5c.jpg Скачать фильм Этот смутный объект желания через торрент бесплантно в хорошем качестве О фильме: Пожилой мужчина влюбляется в молоденькую девушку, которая, осознавая свою Влacть над ним, мучает и дразнит его, соблазняя и ... 10 10 2
Info! Золотая раздача, скачанное не засчитывается.
Торрент: Зарегистрирован [2017-11-21 08:13] · скачан: 29 раз
Статус: √ проверено
Размер: 12.51 GB
Как cкачать? Как скачать Этот смутный объект желания через торрент | qTorrent

% Раздел Тема Автор DL S | L
Фильмы [HD 720p, 1080p] (Хороший звук DUB, MVO) [ 4.78 GB ] Этот смутный объект желания / That Obscure Object of Desire [1977 BDRip 720p by msltel] 2 x DVO msltel Скачать
1 | 0

28-11-2019 20:33  

Отключить всю рекламу на сайте

    Дорогой пользователь! Огромная просьба, поблагодарите релизера, оцените раздачу и оставьте свои комментарий, если Вы скачали Этот смутный объект желания через торрент бесплатно! Внесите свою лепту в развитие PiratBit!
    Комментировать посты могут только пользователи прошедшие не сложную регистрацию
    Показать сообщения:    

    Этот смутный объект желания через торрент
    Скачать бесплатно Этот смутный объект желания
    Этот смутный объект желания скачать торрент
    Этот смутный объект желания смотреть онлайн
    Cкачать фильм Этот смутный объект желания бесплатно
    Этот смутный объект желания скачать торрент в хорошем качестве
    Этот смутный объект желания смотреть онлайн бесплатно в хорошем качестве


    Вы не можете начинать темы
    Вы не можете отвечать на сообщения
    Вы не можете редактировать свои сообщения
    Вы не можете удалять свои сообщения
    Вы не можете голосовать в опросах
    Вы не можете прикреплять файлы к сообщениям
    Вы можете скачивать файлы