новый адрес пиратбит piratbit
Мега распродажа FORZA HORIZON 4 ULTIMATE+ВСЕ DLC+ОНЛАЙН всего за 499р. 349 руб. (супер цена). Внимание количество ограничено!!!

iTunes

1+1

iTunes

мы

iTunes

1

iTunes

Чернобыль

iTunes

Ральф против интернета

Лицензия

ПШазам

Лицензия

Игра престолов

Лицензия

30
pack

ВАЖНО

!!Акция!!

Alien_RageХит недели

RePack

Resident Evil 21

ИГРА 18+

pack

RePack

Metro:Exodus

!!Акция!!

Alien_Rage

RePack

fifa19

RePack

Assassins Creed: Odyssey

RePack

NEED FOR SPEED™ PAYBACK

3 сезон

9 сезон

Бесстыжие 9 сезон

Все сериалы

все сериалы на PB.wtf

RePack

FAR CRY 5
Ребята, катастрофически не хватает 1900р. для оплаты серверов за Октябрь (всвязи с блокировками трафик упал в 3 раза), 1-2р., выручайте.
  

Как поссорился Иван Иванович с Иваном Никифоровичем (Владимир Карасев) [1959, СССР, комедия, DVDRip от AVP Studio] pb.wtf

Как поссорился Иван Иванович с Иваном Никифоровичем через торрент pb.wtf

Размер: 1.09 GB | Добавлен: 1 год 11 мес. назад | Торрент скачан:17 раз
Скачать  

21-11-2017 09:57 Как поссорился Иван Иванович с Иваном Никифоровичем Скачать торрент  

Как поссорился Иван Иванович с Иваном Никифоровичем
Страна: СССР
Производство: Одесская киностудия

Жанр: комедия
Год выпуска: 1959
Продолжительность: 1:05:18

Перевод: Не требуется
Cубтитры: нет
Оригинальная аудиодорожка: русский

Режиссер: Владимир Карасев

В ролях:
Николай Волков, Г. Лаврик, Иван Маркевич, Георгий Светлани, Глеб Глебов, Н. Смирнов, Бронислава Михалевич, София Карамаш, Валентина Кравченко, Георгий Вицин...
Об актёрах подробней

Описание:
Как поссорились Иван Иванович с Иваном Никифоровичем? Зашел Иван Иванович к своему закадычному другу Ивану Никифоровичу, желая выпросить понравившееся ружье. Да не сложилось. И в пылу спора Иван Никифорович возьми да и назови Ивана Ивановича гусаком. А тот возьми да и разгневайся. А что было дальше… Ой, что было!..

Источник: DVD9 R5
Качество видео: DVDRip
Формат видео: AVI

Видео: 704x512 (1,375:1), 25 fps, XviD ~ 1937 kbps avg, 0.215 bit/pixel
Аудио: 48 kHz, Dolby Digital AC3 5.1, 448 kbps

Раздача от:
Общее
Полное имя : Kak.possorilsya.Ivan.Ivanovich.s.Ivanom.Nikiforovichem.1959.DVDRip_[New-team]_by_AVP_Studio.avi
Формат : AVI
Формат/Информация : Audio Video Interleave
Размер файла : 1,09 Гбайт
Продолжительность : 1 ч. 5 м.
Общий поток : 2394 Кбит/сек
Программа кодирования : VirtualDubModRus 1.5.10.2 (build 2542/release)
Библиотека кодирования : VirtualDubMod build 2542/release

Видео
Идентификатор : 0
Формат : MPEG-4 Visual
Профиль формата : Advanced Simple@L5
Параметр BVOP формата : 1
Параметр QPel формата : Нет
Параметр GMC формата : Без точки перехода
Параметр матрицы формата : Выборочная
Идентификатор кодека : XVID
Идентификатор кодека/Подсказка : XviD
Продолжительность : 1 ч. 5 м.
Битрейт : 1937 Кбит/сек
Ширина : 704 пикселя
Высота : 512 пикселей
Соотношение сторон : 1,375
Частота кадров : 25,000 кадров/сек
Цветовое пространство : YUV
Субдискретизация насыщенности : 4:2:0
Битовая глубина : 8 бит
Тип развёртки : Прогрессивная
Метод сжатия : С потерями
Бит/(Пиксели*Кадры) : 0.215
Размер потока : 905 Мбайт (81%)
Библиотека кодирования : XviD 73

Аудио
Идентификатор : 1
Формат : AC-3
Формат/Информация : Audio Coding 3
Расширение режима : CM (complete main)
Параметр Endianness формата : Big
Идентификатор кодека : 2000
Продолжительность : 1 ч. 5 м.
Вид битрейта : Постоянный
Битрейт : 448 Кбит/сек
Каналы : 6 каналов
Расположение каналов : Front: L C R, Side: L R, LFE
Частота : 48,0 КГц
Битовая глубина : 16 бит
Метод сжатия : С потерями
Задержка видео : 240 мс.
Размер потока : 209 Мбайт (19%)
Выравнивание : Разделение по промежуткам
Продолжительность промежутка : 40 мс. (1,00 видеокадр)
Время предзагрузки промежутка : 500 мс
pb.wtf



Скачать Как поссорился Иван Иванович с Иваном Никифоровичем через торрент http://s020.radikal.ru/i719/1501/81/e7a76f784972.png Скачать фильм Как поссорился Иван Иванович с Иваном Никифоровичем через торрент бесплантно в хорошем качестве Описание:Как поссорились Иван Иванович с Иваном Никифоровичем? Зашел Иван Иванович к своему закадычному другу Ивану Никифоровичу, желая ... 10 10 1
Info! Золотая раздача, скачанное не засчитывается.
Торрент: Зарегистрирован [2017-11-21 09:57] · скачан: 17 раз
Статус: √ проверено
Размер: 1.09 GB
Как cкачать? Как скачать Как поссорился Иван Иванович с Иваном Никифоровичем через торрент | qTorrent

% Раздел Тема Автор DL S | L
Кино СССР [ 1.09 GB ] Как поссорился Иван Иванович с Иваном Никифоровичем [1959 СССР DVDRip-AVC от AVP Studio] AVP Studio Скачать
1 | 0
Кино СССР [ 744 MB ] Как поссорился Иван Иванович с Иваном Никифоровичем [1959 СССР DVDRip от AVP Studio] AVP Studio Скачать
1 | 0


>> Регистрируемся здесь <<






Отзывы и комментарии о схеме читаем и пишем здесь: ---> Отзывы и комментарии о схеме

Новые благодарочки в телеграм довольных пользователей:
скриншот   скриншот   скриншот   скриншот   скриншот
    Дорогой пользователь! Огромная просьба, поблагодарите релизера, оцените раздачу и оставьте свои комментарий, если Вы скачали Как поссорился Иван Иванович с Иваном Никифоровичем через торрент бесплатно! Внесите свою лепту в развитие PiratBit!
    Комментировать посты могут только пользователи прошедшие не сложную регистрацию
    Показать сообщения:    

    Как поссорился Иван Иванович с Иваном Никифоровичем через торрент
    Скачать бесплатно Как поссорился Иван Иванович с Иваном Никифоровичем
    Как поссорился Иван Иванович с Иваном Никифоровичем скачать торрент
    Как поссорился Иван Иванович с Иваном Никифоровичем смотреть онлайн
    Cкачать фильм Как поссорился Иван Иванович с Иваном Никифоровичем бесплатно
    Как поссорился Иван Иванович с Иваном Никифоровичем скачать торрент в хорошем качестве
    Как поссорился Иван Иванович с Иваном Никифоровичем смотреть онлайн бесплатно в хорошем качестве


    Вы не можете начинать темы
    Вы не можете отвечать на сообщения
    Вы не можете редактировать свои сообщения
    Вы не можете удалять свои сообщения
    Вы не можете голосовать в опросах
    Вы не можете прикреплять файлы к сообщениям
    Вы можете скачивать файлы