новый адрес
Ссылка на приватное зеркало всего за 1$. Внимание количество ограничено!!!

iTunes

1+1

iTunes

мы

iTunes

1

iTunes

Чернобыль

iTunes

Ральф против интернета

Лицензия

ПШазам

Лицензия

Оно 2

Лицензия

30
pack

Вам бонус

ВАЖНО

!!Акция!!

Alien_RageХит недели

RePack

Resident Evil 21

ИГРА 18+

pack

RePack

jed

!!Акция!!

Alien_Rage

RePack

fifa19

RePack

Assassins Creed: Odyssey

RePack

NEED FOR SPEED™ PAYBACK

3 сезон

9 сезон

Бесстыжие 9 сезон

Все сериалы

все сериалы на PB.wtf

RePack

FAR CRY 5
Ребята, катастрофически не хватает 1900р. для оплаты серверов за Октябрь (всвязи с блокировками трафик упал в 3 раза), 1-2р., выручайте.
  

Как поссорился Иван Иванович с Иваном Никифоровичем (Владимир Карасев) [1959, СССР, комедия, DVDRip от AVP Studio] pb.wtf

Как поссорился Иван Иванович с Иваном Никифоровичем через торрент pb.wtf

Размер: 744 MB | Добавлен: 2 года назад | Торрент скачан:15 раз
Скачать  

21-11-2017 09:58 Как поссорился Иван Иванович с Иваном Никифоровичем Скачать торрент  

Как поссорился Иван Иванович с Иваном Никифоровичем
Страна: СССР
Производство: Одесская киностудия

Жанр: комедия
Год выпуска: 1959
Продолжительность: 1:05:18

Перевод: Не требуется
Cубтитры: нет
Оригинальная аудиодорожка: русский

Режиссер: Владимир Карасев

В ролях:
Николай Волков, Г. Лаврик, Иван Маркевич, Георгий Светлани, Глеб Глебов, Н. Смирнов, Бронислава Михалевич, София Карамаш, Валентина Кравченко, Георгий Вицин...
Об актёрах подробней

Описание:
Как поссорились Иван Иванович с Иваном Никифоровичем? Зашел Иван Иванович к своему закадычному другу Ивану Никифоровичу, желая выпросить понравившееся ружье. Да не сложилось. И в пылу спора Иван Никифорович возьми да и назови Ивана Ивановича гусаком. А тот возьми да и разгневайся. А что было дальше… Ой, что было!..

Источник: DVD9 R5
Качество видео: DVDRip
Формат видео: AVI

Видео: 704x512 (1.375:1), 25 fps, XviD ~ 1456 kbps avg, 0.162 bit/pixel
Аудио: 48 kHz, MP3 2.0, 128 kbps

Раздача от:
Общее
Полное имя : Kak.possorilsya.Ivan.Ivanovich.s.Ivanom.Nikiforovichem.1959.DVDRip-745_[New-team]_by_AVP_Studio.avi
Формат : AVI
Формат/Информация : Audio Video Interleave
Размер файла : 744 Мбайт
Продолжительность : 1 ч. 5 м.
Общий поток : 1593 Кбит/сек
Программа кодирования : VirtualDubModRus 1.5.10.2 (build 2542/release)
Библиотека кодирования : VirtualDubMod build 2542/release

Видео
Идентификатор : 0
Формат : MPEG-4 Visual
Профиль формата : Advanced Simple@L5
Параметр BVOP формата : 1
Параметр QPel формата : Нет
Параметр GMC формата : Без точки перехода
Параметр матрицы формата : Выборочная
Идентификатор кодека : XVID
Идентификатор кодека/Подсказка : XviD
Продолжительность : 1 ч. 5 м.
Битрейт : 1456 Кбит/сек
Ширина : 704 пикселя
Высота : 512 пикселей
Соотношение сторон : 1,375
Частота кадров : 25,000 кадров/сек
Цветовое пространство : YUV
Субдискретизация насыщенности : 4:2:0
Битовая глубина : 8 бит
Тип развёртки : Прогрессивная
Метод сжатия : С потерями
Бит/(Пиксели*Кадры) : 0.162
Размер потока : 680 Мбайт (91%)
Библиотека кодирования : XviD 73

Аудио
Идентификатор : 1
Формат : MPEG Audio
Версия формата : Version 1
Профиль формата : Layer 3
Идентификатор кодека : 55
Идентификатор кодека/Подсказка : MP3
Продолжительность : 1 ч. 5 м.
Вид битрейта : Постоянный
Битрейт : 128 Кбит/сек
Каналы : 2 канала
Частота : 48,0 КГц
Метод сжатия : С потерями
Размер потока : 59,8 Мбайт (8%)
Выравнивание : Соединение по промежуткам
Продолжительность промежутка : 40 мс. (1,00 видеокадр)
Время предзагрузки промежутка : 504 мс.
Библиотека кодирования : LAME3.99r
Настройки программы : -m s -V 4 -q 2 -lowpass 17 -b 128
pb.wtf



Скачать Как поссорился Иван Иванович с Иваном Никифоровичем через торрент http://s020.radikal.ru/i719/1501/81/e7a76f784972.png Скачать фильм Как поссорился Иван Иванович с Иваном Никифоровичем через торрент бесплантно в хорошем качестве Описание:Как поссорились Иван Иванович с Иваном Никифоровичем? Зашел Иван Иванович к своему закадычному другу Ивану Никифоровичу, желая ... 10 10 1
Info! Золотая раздача, скачанное не засчитывается.
Торрент: Зарегистрирован [2017-11-21 09:58] · скачан: 15 раз
Статус: √ проверено
Размер: 744 MB
Как cкачать? Как скачать Как поссорился Иван Иванович с Иваном Никифоровичем через торрент | qTorrent

% Раздел Тема Автор DL S | L
Кино СССР [ 1.09 GB ] Как поссорился Иван Иванович с Иваном Никифоровичем [1959 СССР DVDRip-AVC от AVP Studio] AVP Studio Скачать
1 | 0
Кино СССР [ 1.09 GB ] Как поссорился Иван Иванович с Иваном Никифоровичем [1959 СССР DVDRip от AVP Studio] AVP Studio Скачать
1 | 0
    Дорогой пользователь! Огромная просьба, поблагодарите релизера, оцените раздачу и оставьте свои комментарий, если Вы скачали Как поссорился Иван Иванович с Иваном Никифоровичем через торрент бесплатно! Внесите свою лепту в развитие PiratBit!
    Комментировать посты могут только пользователи прошедшие не сложную регистрацию
    Показать сообщения:    

    Как поссорился Иван Иванович с Иваном Никифоровичем через торрент
    Скачать бесплатно Как поссорился Иван Иванович с Иваном Никифоровичем
    Как поссорился Иван Иванович с Иваном Никифоровичем скачать торрент
    Как поссорился Иван Иванович с Иваном Никифоровичем смотреть онлайн
    Cкачать фильм Как поссорился Иван Иванович с Иваном Никифоровичем бесплатно
    Как поссорился Иван Иванович с Иваном Никифоровичем скачать торрент в хорошем качестве
    Как поссорился Иван Иванович с Иваном Никифоровичем смотреть онлайн бесплатно в хорошем качестве


    Вы не можете начинать темы
    Вы не можете отвечать на сообщения
    Вы не можете редактировать свои сообщения
    Вы не можете удалять свои сообщения
    Вы не можете голосовать в опросах
    Вы не можете прикреплять файлы к сообщениям
    Вы можете скачивать файлы