Ссылка на приватное зеркало нашего сайта всего за 1$. Внимание количество ограничено!!!

2 сезон

iTunes

1 сезон

1

2 сезон

2 сезон

iTunes

1 сезон

RePack

30

Новинка

ВАЖНО

ИГРА 18+

pack

RePack

MK11
pack

Забери бонус

RePack

jed

!!Акция!!

Alien_Rage

RePack

fifa19

RePack

Assassins Creed: Odyssey

RePack

NEED FOR SPEED™ PAYBACK

4 сезон

9 сезон

Бесстыжие 9 сезон

Все сериалы

все сериалы на PB.wtf

RePack

FAR CRY 5
  

Беглецы / Runaways / Cезон: 1 / Серии: 1-10 из 10 (Роксанн Доусон, Нина Лопес-Коррадо, Бретт Морген) [2017, Фантастика, боевик, драма, WEBRip] MVO [BaibaKo] pb.wtf

Беглецы через торрент pb.wtf

Размер: 6.63 GB | Добавлен: 2 года 10 мес. назад | Торрент скачан:65 раз
Скачать  

22-11-2017 05:47 Беглецы Скачать торрент  

Беглецы / RunawaysГод выпуска: 2017
Страна: США
Жанр: Фантастика, боевик, драма
Продолжительность: x ~ 00:50:00
Перевод: Профессиональный многоголосый - BaibaKo
Субтитры: отсутствуют

Режиссер: Роксанн Доусон, Нина Лопес-Коррадо, Бретт Морген

rating

В ролях:

Вирджиния Гарднер, Коуди Майо, Николь Вульф, Грегг Салкин, Кевин Уайзман, Райан Дум, Кармен Серано, Аллегра Акоста, Ариэла Барер, Бриджид Брэнно

Описание:

История шести подростков, которые случайно узнают, что их родители входят в состав группы суперзлодеев под названием «Прайд». Эта группа руководит преступным миром Лос-Анджелеса. Дети узнают, что каждый из них, как и их родители, обладает какими-то способностями (а кто-то и вовсе не является человеком). Подростки решают, что не готовы принять такую судьбу, и пытаются сбежать от своих родителей.

Качество: WEBRip
Формат: AVI
Видео кодек: XviD
Аудио кодек: AC3

Видео: XviD, ~ 1600 Кбит/с, 720x400
Аудио#1: Русский (AC3, 2 ch, 192 Кбит/с)
Аудио#2: английский (AC3, 2 ch, 192 Кбит/с)
скриншот   скриншот   скриншот  

Общее
Полное имя : D:\Marvels.Runaways.s01e01.WEBRip.Rus.Eng.BaibaKo.tv.avi
Формат : AVI
Формат/Информация : Audio Video Interleave
Размер файла : 751 Мбайт
Продолжительность : 53 м. 12 с.
Общий поток : 1973 Кбит/сек
Режиссёр : BiNMoViE
Программа кодирования : VirtualDubMod 1.5.10.2 (build 2540/release)
Библиотека кодирования : VirtualDubMod build 2540/release

Видео
Идентификатор : 0
Формат : MPEG-4 Visual
Профиль формата : Advanced Simple@L5
Параметр BVOP формата : 2
Параметр QPel формата : Нет
Параметр GMC формата : Без точки перехода
Параметр матрицы формата : Default (MPEG)
Идентификатор кодека : XVID
Идентификатор кодека/Подсказка : XviD
Продолжительность : 53 м. 12 с.
Битрейт : 1575 Кбит/сек
Ширина : 720 пикселей
Высота : 400 пикселей
Соотношение сторон : 16:9
Частота кадров : 23,976 (23976/1000) кадра/сек
Цветовое пространство : YUV
Субдискретизация насыщенности : 4:2:0
Битовая глубина : 8 бит
Тип развёртки : Прогрессивная
Метод сжатия : С потерями
Бит/(Пиксели*Кадры) : 0.228
Размер потока : 599 Мбайт (80%)
Библиотека кодирования : XviD 1.2.1 (UTC 2008-12-04)

Аудио #1
Идентификатор : 1
Формат : AC-3
Формат/Информация : Audio Coding 3
Расширение режима : CM (complete main)
Параметр Endianness формата : Big
Идентификатор кодека : 2000
Продолжительность : 53 м. 12 с.
Вид битрейта : Постоянный
Битрейт : 192 Кбит/сек
Каналы : 2 канала
Расположение каналов : Front: L R
Частота : 48,0 КГц
Частота кадров : 31,250 кадров/сек (1536 spf)
Метод сжатия : С потерями
Размер потока : 73,1 Мбайт (10%)
Выравнивание : Разделение по промежуткам
Продолжительность промежутка : 42 мс. (1,00 видеокадр)
Время предзагрузки промежутка : 500 мс.

Аудио #2
Идентификатор : 2
Формат : AC-3
Формат/Информация : Audio Coding 3
Расширение режима : CM (complete main)
Параметр Endianness формата : Big
Идентификатор кодека : 2000
Продолжительность : 53 м. 12 с.
Вид битрейта : Постоянный
Битрейт : 192 Кбит/сек
Каналы : 2 канала
Расположение каналов : Front: L R
Частота : 48,0 КГц
Частота кадров : 31,250 кадров/сек (1536 spf)
Метод сжатия : С потерями
Размер потока : 73,1 Мбайт (10%)
Выравнивание : Разделение по промежуткам
Продолжительность промежутка : 42 мс. (1,00 видеокадр)
Время предзагрузки промежутка : 500 мс.

Внимание! Раздача ведётся путём добавления новых серий; при каждом добавлении создаётся новый торрент. Чтобы начать докачку новой серии, пользователям необходимо сделать следующее:
(1) остановить скачивание,
(2) удалить старый торрент у себя из клиента (старые серии удалять не надо),
(3) скачать новый торрент и запустить его у себя в клиенте вместо старого, при этом указать клиенту путь в старую папку куда и должно происходить скачивание новых серий.
Ваш клиент при этом должен произвести хеширование (проверку) старой папки (если не производит сам - помогите ему сделать это), и будет докачивать только те серии которых у вас ещё нет. Старые серии при этом не удаляются, а продолжают раздаваться!
Eсли вы уже удалили старые серии, то предотвратить повторную закачку старых серий можно, отжав галочку в соответствующих местах при запуске нового торрента. По возможности, желательно не удалять старые серии как можно дольше чтобы релизёр не столько продолжал раздавать старые серии, а смог сконцентрироваться на новых.
pb.wtf



Скачать Беглецы через торрент http://i103.fastpic.ru/big/2018/0114/97/7ef85f6ba45dd789849e02d0f5b6af97.jpg Скачать фильм Беглецы через торрент бесплантно в хорошем качестве Описание: История шести подростков, которые случайно узнают, что их родители входят в состав группы суперзлодеев под названием «Прайд». Эта ... 10 10 4
Торрент: Зарегистрирован [2018-01-14 01:53] · скачан: 65 раз
Статус: √ проверено
Размер: 6.63 GB
Как cкачать? Как скачать Беглецы через торрент | qTorrent

% Раздел Тема Автор DL S | L
Зарубежные сериалы [ 44.3 GB ] Беглецы / Runaways / Cезон: 1 / Серии: 1-10 из 10 [2017 WEB-DL 1080p] MVO [Кириллица] bober100 Скачать
1 | 0
Зарубежные сериалы [ 20.55 GB ] Беглецы / Runaways / Cезон: 1 / Серии: 1-10 из 10 [2017 WEBRip 1080p] MVO [NewStudio] bober100 Скачать
1 | 0
Зарубежные сериалы [ 45.96 GB ] Беглецы / Runaways / Cезон: 1 / Серии: 1-10 из 10 [2017 WEB-DL 1080p] MVO [LostFilm] bober100 Скачать
1 | 0
Зарубежные сериалы [ 20.99 GB ] Беглецы / Runaways / Cезон: 1 / Серии: 1-10 из 10 [2017 WEB-DL 1080p] MVO [Jaskier] bober100 Скачать
1 | 0
Зарубежные сериалы [ 5.66 GB ] Беглецы / Runaways / Cезон: 1 / Серии: 1-10 из 10 [2017 WEB-DLRip] MVO [NewStudio] bober100 Скачать
1 | 0
Зарубежные сериалы [ 5.89 GB ] Беглецы / Runaways / Cезон: 1 / Серии: 1-10 из 10 [2017 WEB-DLRip] MVO [Jaskier] bober100 Скачать
1 | 0


Последний раз редактировалось: bober100 (2018-01-14 01:53), всего редактировалось 6 раз(а)

28-11-2019 20:33  

Отключить всю рекламу на сайте

22-11-2017 14:16 Беглецы Скачать торрент  

со второго скрина девушка похожа на Дженифер Лоуренсpb.wtf



14-01-2018 11:31 Беглецы Скачать торрент  

Антонн писал(а):

со второго скрина девушка похожа на Дженифер Лоуренс

Сходство с Лоуренс такое же, как со Сталонеpb.wtf



    Дорогой пользователь! Огромная просьба, поблагодарите релизера, оцените раздачу и оставьте свои комментарий, если Вы скачали Беглецы через торрент бесплатно! Внесите свою лепту в развитие PiratBit!
    Комментировать посты могут только пользователи прошедшие не сложную регистрацию
    Показать сообщения:    

    Беглецы через торрент
    Скачать бесплатно Беглецы
    Беглецы скачать торрент
    Беглецы смотреть онлайн
    Cкачать фильм Беглецы бесплатно
    Беглецы скачать торрент в хорошем качестве
    Беглецы смотреть онлайн бесплатно в хорошем качестве


    Вы не можете начинать темы
    Вы не можете отвечать на сообщения
    Вы не можете редактировать свои сообщения
    Вы не можете удалять свои сообщения
    Вы не можете голосовать в опросах
    Вы не можете прикреплять файлы к сообщениям
    Вы можете скачивать файлы