2 сезон

iTunes

1 сезон

1

iTunes

iTunes

iTunes

1 сезон

RePack

30

ИГРА 18+

pack

ВАЖНО

!!Акция!!

Alien_RageХит недели

RePack

MK11
pack

Забери бонус

RePack

jed

!!Акция!!

Alien_Rage

RePack

fifa19

RePack

Assassins Creed: Odyssey

RePack

NEED FOR SPEED™ PAYBACK

4 сезон

9 сезон

Бесстыжие 9 сезон

Все сериалы

все сериалы на PB.wtf

RePack

FAR CRY 5
  

Американский оборотень в Лондоне / An American Werewolf in London (Джон Лэндис) [1981, ужасы, комедия, BDRip 720p by msltel] MVO, DVO, 3 x AVO pb.wtf

Американский оборотень в Лондоне через торрент pb.wtf

Размер: 5.89 GB | Добавлен: 2 года 11 мес. назад | Торрент скачан:29 раз
Скачать  

22-11-2017 07:56 Американский оборотень в Лондоне Скачать торрент  

Название: Американский оборотень в Лондоне
Оригинальное название: An American Werewolf in London
Год выпуска: 1981
Страна: Великобритания, США
Жанр: ужасы, комедия
Продолжительность: 01:37:31
Перевод: профессиональный многоголосый, профессиональный двухголосый, авторский

Режиссер: Джон Лэндис
В ролях: Брайан Гловер, Гриффин Данн, Дженни Агаттер, Джон Вудвайн, Дон МакКиллоп, Дэвид Нотон, Дэвид Скофилд, Лайла Кэй, Пол Кембер, Фрэнк Оз

О фильме: Есть в старушке Англии лихие, жуткие места, путешествовать по которым чрезвычайно опасно. И наших героев, двух беззаботных американских туристов, об этом предупредили. Но весёлые заокеанские парни не вняли предостережениям местных жителей и в глухой ночи, освещаемой мертвенным светом Луны, сошли с дороги. Здесь, во мраке, их ждал неописуемый кошмар, после которого одному из американцев было суждено стать ужасным призраком, а другому — кровожадным оборотнем!



Качество: BDRip 720p
Формат: MKV
Видео: MPEG-4 AVC, 6272 Кбит/с, 1280x694
Аудио 1: русский, AC3, 192 kbps, 2 ch, 48 kHz [профессиональный многоголосый, Юниверсал]
Аудио 2: русский, AC3, 192 kbps, 2 ch, 48 kHz [профессиональный двухголосый, Кипарис/НТВ]
Аудио 3: русский, AC3, 448 kbps, 6 ch, 48 kHz [авторский, Андрей Гаврилов]
Аудио 4: русский, AC3, 448 kbps, 6 ch, 48 kHz [авторский, Юрий Живов]
Аудио 5: русский, AC3, 640 kbps, 6 ch, 48 kHz [авторский, Михаил Чадов]
Аудио 6: английский, AC3, 448 kbps, 6 ch, 48 kHz [оригинал]
Субтитры 1: русские
Субтитры 2: английские
Неименованные главы/чаптеры.
Общее
Уникальный идентификатор : 253713092165404550750782224079952954678 (0xBEDF5D38D5161A5BBC83EE3553124536)
Полное имя : D:\Video\Американский оборотень в Лондоне.1981.BDRip.720p by msltel.mkv
Формат : Matroska
Версия формата : Version 4 / Version 2
Размер файла : 5,89 Гбайт
Продолжительность : 1 ч. 37 м.
Общий поток : 8643 Кбит/сек
Название фильма : Rip by msltel
Дата кодирования : UTC 2017-11-22 06:05:34
Программа кодирования : mkvmerge v8.2.0 ('World of Adventure') 64bit
Библиотека кодирования : libebml v1.3.1 + libmatroska v1.4.2

Видео
Идентификатор : 1
Формат : AVC
Формат/Информация : Advanced Video Codec
Профиль формата : High@L4.1
Настройки формата : CABAC / 9 Ref Frames
Параметр CABAC формата : Да
Параметр RefFrames формата : 9 кадров
Идентификатор кодека : V_MPEG4/ISO/AVC
Продолжительность : 1 ч. 37 м.
Битрейт : 6272 Кбит/сек
Ширина : 1280 пикселей
Высота : 694 пикселя
Соотношение сторон : 1,85:1
Режим частоты кадров : Постоянный
Частота кадров : 23,976 (24000/1001) кадра/сек
Цветовое пространство : YUV
Субдискретизация насыщенности : 4:2:0
Битовая глубина : 8 бит
Тип развёртки : Прогрессивная
Бит/(Пиксели*Кадры) : 0.294
Размер потока : 4,27 Гбайт (73%)
Библиотека кодирования : x264 core 146 r2538 121396c
Настройки программы : cabac=1 / ref=9 / deblock=1:-3:-2 / analyse=0x3:0x113 / me=umh / subme=11 / psy=1 / psy_rd=1.00:0.15 / mixed_ref=1 / me_range=32 / chroma_me=1 / trellis=2 / 8x8dct=1 / cqm=0 / deadzone=21,11 / fast_pskip=0 / chroma_qp_offset=-3 / threads=6 / lookahead_threads=1 / sliced_threads=0 / nr=0 / decimate=1 / interlaced=0 / bluray_compat=0 / constrained_intra=0 / bframes=13 / b_pyramid=2 / b_adapt=2 / b_bias=0 / direct=1 / weightb=1 / open_gop=0 / weightp=2 / keyint=230 / keyint_min=23 / scenecut=40 / intra_refresh=0 / rc_lookahead=40 / rc=crf / mbtree=0 / crf=21.1 / qcomp=0.60 / qpmin=0 / qpmax=69 / qpstep=4 / vbv_maxrate=62500 / vbv_bufsize=78125 / crf_max=0.0 / nal_hrd=none / filler=0 / ip_ratio=1.40 / pb_ratio=1.30 / aq=1:1.00
Язык : English
Default : Да
Forced : Нет

Аудио #1
Идентификатор : 2
Формат : AC-3
Формат/Информация : Audio Coding 3
Идентификатор кодека : A_AC3
Продолжительность : 1 ч. 37 м.
Вид битрейта : Постоянный
Битрейт : 192 Кбит/сек
Каналы : 2 канала
Расположение каналов : Front: L R
Частота : 48,0 КГц
Частота кадров : 31,250 кадров/сек (1536 SPF)
Битовая глубина : 16 бит
Метод сжатия : С потерями
Размер потока : 134 Мбайт (2%)
Заголовок : MVO Юниверсал
Язык : Russian
ServiceKind/String : Complete Main
Default : Да
Forced : Нет

Аудио #2
Идентификатор : 3
Формат : AC-3
Формат/Информация : Audio Coding 3
Идентификатор кодека : A_AC3
Продолжительность : 1 ч. 37 м.
Вид битрейта : Постоянный
Битрейт : 192 Кбит/сек
Каналы : 2 канала
Расположение каналов : Front: L R
Частота : 48,0 КГц
Частота кадров : 31,250 кадров/сек (1536 SPF)
Битовая глубина : 16 бит
Метод сжатия : С потерями
Размер потока : 134 Мбайт (2%)
Заголовок : DVO Кипарис/НТВ
Язык : Russian
ServiceKind/String : Complete Main
Default : Нет
Forced : Нет

Аудио #3
Идентификатор : 4
Формат : AC-3
Формат/Информация : Audio Coding 3
Идентификатор кодека : A_AC3
Продолжительность : 1 ч. 37 м.
Вид битрейта : Постоянный
Битрейт : 448 Кбит/сек
Каналы : 6 каналов
Расположение каналов : Front: L C R, Side: L R, LFE
Частота : 48,0 КГц
Частота кадров : 31,250 кадров/сек (1536 SPF)
Битовая глубина : 16 бит
Метод сжатия : С потерями
Размер потока : 312 Мбайт (5%)
Заголовок : Андрей Гаврилов
Язык : Russian
ServiceKind/String : Complete Main
Default : Нет
Forced : Нет

Аудио #4
Идентификатор : 5
Формат : AC-3
Формат/Информация : Audio Coding 3
Идентификатор кодека : A_AC3
Продолжительность : 1 ч. 37 м.
Вид битрейта : Постоянный
Битрейт : 448 Кбит/сек
Каналы : 6 каналов
Расположение каналов : Front: L C R, Side: L R, LFE
Частота : 48,0 КГц
Частота кадров : 31,250 кадров/сек (1536 SPF)
Битовая глубина : 16 бит
Метод сжатия : С потерями
Размер потока : 312 Мбайт (5%)
Заголовок : Юрий Живов
Язык : Russian
ServiceKind/String : Complete Main
Default : Нет
Forced : Нет

Аудио #5
Идентификатор : 6
Формат : AC-3
Формат/Информация : Audio Coding 3
Идентификатор кодека : A_AC3
Продолжительность : 1 ч. 37 м.
Вид битрейта : Постоянный
Битрейт : 640 Кбит/сек
Каналы : 6 каналов
Расположение каналов : Front: L C R, Side: L R, LFE
Частота : 48,0 КГц
Частота кадров : 31,250 кадров/сек (1536 SPF)
Битовая глубина : 16 бит
Метод сжатия : С потерями
Размер потока : 446 Мбайт (7%)
Заголовок : Михаил Чадов
Язык : Russian
ServiceKind/String : Complete Main
Default : Нет
Forced : Нет

Аудио #6
Идентификатор : 7
Формат : AC-3
Формат/Информация : Audio Coding 3
Идентификатор кодека : A_AC3
Продолжительность : 1 ч. 37 м.
Вид битрейта : Постоянный
Битрейт : 448 Кбит/сек
Каналы : 6 каналов
Расположение каналов : Front: L C R, Side: L R, LFE
Частота : 48,0 КГц
Частота кадров : 31,250 кадров/сек (1536 SPF)
Битовая глубина : 16 бит
Метод сжатия : С потерями
Размер потока : 312 Мбайт (5%)
Заголовок : original
Язык : English
ServiceKind/String : Complete Main
Default : Нет
Forced : Нет

Текст #1
Идентификатор : 8
Формат : UTF-8
Идентификатор кодека : S_TEXT/UTF8
Идентификатор кодека/Информация : UTF-8 Plain Text
Продолжительность : 1 ч. 32 м.
Битрейт : 85 бит/сек
ElementCount : 965
Размер потока : 58,0 Кбайт (0%)
Заголовок : русские
Язык : Russian
Default : Нет
Forced : Нет

Текст #2
Идентификатор : 9
Формат : UTF-8
Идентификатор кодека : S_TEXT/UTF8
Идентификатор кодека/Информация : UTF-8 Plain Text
Продолжительность : 1 ч. 36 м.
Битрейт : 57 бит/сек
ElementCount : 1286
Размер потока : 40,8 Кбайт (0%)
Заголовок : английские
Язык : English
Default : Нет
Forced : Нет

Меню
00:00:00.000 : en:00:00:00.000
00:02:33.153 : en:00:02:33.153
00:06:19.629 : en:00:06:19.629
00:13:52.457 : en:00:13:52.457
00:17:24.126 : en:00:17:24.126
00:28:34.630 : en:00:28:34.630
00:33:01.646 : en:00:33:01.646
00:37:40.967 : en:00:37:40.967
00:42:56.616 : en:00:42:56.616
00:47:38.230 : en:00:47:38.230
00:53:32.000 : en:00:53:32.000
00:58:16.618 : en:00:58:16.618
01:01:22.470 : en:01:01:22.470
01:05:31.010 : en:01:05:31.010
01:09:15.818 : en:01:09:15.818
01:15:18.097 : en:01:15:18.097
01:21:42.731 : en:01:21:42.731
01:26:29.142 : en:01:26:29.142
01:31:56.845 : en:01:31:56.845
01:33:42.992 : en:01:33:42.992
pb.wtf



Скачать Американский оборотень в Лондоне через торрент http://s018.radikal.ru/i516/1711/a7/d0ccee504d43.jpg Скачать фильм Американский оборотень в Лондоне через торрент бесплантно в хорошем качестве О фильме: Есть в старушке Англии лихие, жуткие места, путешествовать по которым чрезвычайно опасно. И наших героев, двух беззаботных ... 10 10 2
Info! Золотая раздача, скачанное не засчитывается.
Торрент: Зарегистрирован [2017-11-22 07:56] · скачан: 29 раз
Статус: √ проверено
Размер: 5.89 GB
Как cкачать? Как скачать Американский оборотень в Лондоне через торрент | qTorrent

% Раздел Тема Автор DL S | L
Фильмы [HD 720p, 1080p] (Хороший звук DUB, MVO) [ 14.82 GB ] Американский оборотень в Лондоне / An American Werewolf in London [1981 BDRip 1080p by msltel] MVO DVO 3 x AVO msltel Скачать
1 | 0

28-11-2019 20:33  

Отключить всю рекламу на сайте

    Дорогой пользователь! Огромная просьба, поблагодарите релизера, оцените раздачу и оставьте свои комментарий, если Вы скачали Американский оборотень в Лондоне через торрент бесплатно! Внесите свою лепту в развитие PiratBit!
    Комментировать посты могут только пользователи прошедшие не сложную регистрацию
    Показать сообщения:    

    Американский оборотень в Лондоне через торрент
    Скачать бесплатно Американский оборотень в Лондоне
    Американский оборотень в Лондоне скачать торрент
    Американский оборотень в Лондоне смотреть онлайн
    Cкачать фильм Американский оборотень в Лондоне бесплатно
    Американский оборотень в Лондоне скачать торрент в хорошем качестве
    Американский оборотень в Лондоне смотреть онлайн бесплатно в хорошем качестве


    Вы не можете начинать темы
    Вы не можете отвечать на сообщения
    Вы не можете редактировать свои сообщения
    Вы не можете удалять свои сообщения
    Вы не можете голосовать в опросах
    Вы не можете прикреплять файлы к сообщениям
    Вы можете скачивать файлы