Ссылка на приватное зеркало всего за 1$. Внимание количество ограничено!!!

iTunes

iTunes

iTunes

1

iTunes

iTunes

iTunes

iTunes

iTunes

30
pack

$ от Little Big

ВАЖНО

!!Акция!!

Alien_RageХит недели

RePack

Resident Evil 21

ИГРА 18+

pack

RePack

jed

!!Акция!!

Alien_Rage

RePack

fifa19

RePack

Assassins Creed: Odyssey

RePack

NEED FOR SPEED™ PAYBACK

4 сезон

9 сезон

Бесстыжие 9 сезон

Все сериалы

все сериалы на PB.wtf

RePack

FAR CRY 5
  

Мадам / Madame (Аманда Штерс) [2017, драма, комедия, WEB-DL 1080p] DUB [iTunes] pb.wtf

Мадам через торрент pb.wtf

Размер: 3.15 GB | Добавлен: 2 года 7 мес. назад | Торрент скачан:447 раз
Скачать  

22-11-2017 08:52 Мадам Скачать торрент  

Мадам / MadameГод выпуска: 2017
Страна: Франция
Жанр: драма, комедия
Продолжительность: 01:31:31
Перевод: Дубляж iTunes
Субтитры: отсутствуют

Режиссер: Аманда Штерс

rating

В ролях:

Тони Коллетт, Харви Кейтель, Росси де Пальма, Майкл Смайли, Кристиан Абарт, Сью Канн, Жозефин де ла Буме, Тим Феллингэм, Виолэйн Джилиберт, Том Хьюз

Описание:

Богатая пара в Париже собирает гостей на званый ужин. Ждут мэра Лондона и других аристократов, но за столом 13 приборов. И хозяйка, из суеверия, просит служанку присоединиться к трапезе. Мария оказывается за столом инкогнито, и в нее влюбляется богатый коллекционер искусства.

Качество: WEB-DL 1080p
Формат: MKV
Видео кодек: H.264
Аудио кодек: AC3

Видео: MPEG-4 AVC, ~4468 kbps avg, 1920x804
Аудио: Russian: AC3, 6 ch, ~384.00 kbps - iTunes
скриншот   скриншот   скриншот   скриншот  

Общее
Уникальный идентификатор : 223399153081268586646948222983681596054 (0xA8111CA2013759749F73549FD2CBDA96)
Полное имя : D:\Madame.2017.WEB-DL.1080p.Rus.mkv
Формат : Matroska
Версия формата : Version 4 / Version 2
Размер файла : 3,15 Гбайт
Продолжительность : 1 ч. 31 м.
Общий поток : 4950 Кбит/сек
Название фильма : MADAME_WEBDL_1080p-BLUEBIRD.mkv
Дата кодирования : UTC 2017-11-21 23:06:53
Программа кодирования : mkvmerge v6.9.1 ('Blue Panther') 32bit built on Apr 18 2014 18:15:44
Библиотека кодирования : libebml v1.3.0 + libmatroska v1.4.1

Видео
Идентификатор : 1
Формат : AVC
Формат/Информация : Advanced Video Codec
Профиль формата : High@L4
Параметр CABAC формата : Да
Параметр ReFrames формата : 5 кадров
Идентификатор кодека : V_MPEG4/ISO/AVC
Продолжительность : 1 ч. 31 м.
Битрейт : 4468 Кбит/сек
Ширина : 1920 пикселей
Высота : 804 пикселя
Соотношение сторон : 2,40:1
Режим частоты кадров : Постоянный
Частота кадров : 24,000 кадра/сек
Цветовое пространство : YUV
Субдискретизация насыщенности : 4:2:0
Битовая глубина : 8 бит
Тип развёртки : Прогрессивная
Бит/(Пиксели*Кадры) : 0.121
Размер потока : 2,85 Гбайт (90%)
Заголовок : MADAME_WEBDL_1080p-BLUEBIRD.mkv
Язык : English
Default : Да
Forced : Нет
Цветовой диапазон : Limited
Основные цвета : BT.709
Характеристики трансфера : BT.709
Коэффициенты матрицы : BT.709

Аудио
Идентификатор : 2
Формат : AC-3
Формат/Информация : Audio Coding 3
Расширение режима : CM (complete main)
Параметр Endianness формата : Big
Идентификатор кодека : A_AC3
Продолжительность : 1 ч. 31 м.
Вид битрейта : Постоянный
Битрейт : 384 Кбит/сек
Каналы : 6 каналов
Расположение каналов : Front: L C R, Side: L R, LFE
Частота : 48,0 КГц
Частота кадров : 31,250 кадров/сек (1536 spf)
Метод сжатия : С потерями
Размер потока : 250 Мбайт (8%)
Заголовок : [DUB] DD 5.1 @ 384 kbps (iTunes)
Язык : Russian
Default : Да
Forced : Нет

Меню
00:00:00.000 : en:Глава 1
00:06:59.250 : en:Глава 2
00:13:15.500 : en:Глава 3
00:18:28.875 : en:Глава 4
00:23:27.666 : en:Глава 5
00:30:21.957 : en:Глава 6
00:37:54.373 : en:Глава 7
00:43:02.414 : en:Глава 8
00:51:30.205 : en:Глава 9
00:57:22.538 : en:Глава 10
01:03:29.204 : en:Глава 11
01:07:38.954 : en:Глава 12
01:13:01.495 : en:Глава 13
01:18:44.078 : en:Глава 14

pb.wtf



Скачать Мадам через торрент http://s41.radikal.ru/i091/1711/ef/6023ddf48c22.jpg Скачать фильм Мадам через торрент бесплантно в хорошем качестве Описание: Богатая пара в Париже собирает гостей на званый ужин. Ждут мэра Лондона и других аристократов, но за столом 13 приборов. И ... 10 10 12
Info! Золотая раздача, скачанное не засчитывается.
Торрент: Зарегистрирован [2017-11-22 08:52] · скачан: 447 раз
Статус: √ проверено
Размер: 3.15 GB
Как cкачать? Как скачать Мадам через торрент | qTorrent

% Раздел Тема Автор DL S | L
Фильмы [HD 720p, 1080p] (Хороший звук DUB, MVO) [ 7.69 GB ] Мадам / Madame [2017 BDRip 1080p] bober100 Скачать
1 | 0
Фильмы 2017 [DVDrip, WEB-DLRip, HDrip] (DUB, MVO) [ 1.42 GB ] Мадам / Madame [2017 BDRip] - Twi7ter Скачать
1 | 0
Фильмы 2017 [DVDrip, WEB-DLRip, HDrip] (DUB, MVO) [ 1.42 GB ] Мадам / Madame [2017 BDRip] bober100 Скачать
1 | 0
Фильмы (Blu-ray, BD-Remux, HDDVD) [ 23.47 GB ] Мадам / Madame [2017 BD Remux 1080p] bober100 Скачать
1 | 0
Лесбиянки [ 856 MB ] Девушки мадам Евы / Les filles de Madame Eva / Madam Eva and her Girls [2017 Feature Lesbian Dildo France DVDRip] Pir@tya2010 Скачать
3 | 0
Порно фильмы HD [ 28.26 GB ] Мадам Ева и ее Подружки / Les Filles De Madame Eva / Madam Eva And Her Girls [2017 18+ Teens MILFs All Girl / Lesbian All Sex Sex Toy Play Feature Threesome WEB-DL 2160p] Pir@tya2010 Скачать
2 | 0
Фильмы 2017 [DVDrip, WEB-DLRip, HDrip] (DUB, MVO) [ 703 MB ] Мадам / Madame [2017 WEB-DLRip ""] coc900 Скачать
1 | 0

28-11-2019 20:33  

Отключить всю рекламу на сайте

23-11-2017 15:30 Мадам Скачать торрент  

3 с натяжкой из 5.pb.wtf



    Дорогой пользователь! Огромная просьба, поблагодарите релизера, оцените раздачу и оставьте свои комментарий, если Вы скачали Мадам через торрент бесплатно! Внесите свою лепту в развитие PiratBit!
    Комментировать посты могут только пользователи прошедшие не сложную регистрацию
    Показать сообщения:    

    Мадам через торрент
    Скачать бесплатно Мадам
    Мадам скачать торрент
    Мадам смотреть онлайн
    Cкачать фильм Мадам бесплатно
    Мадам скачать торрент в хорошем качестве
    Мадам смотреть онлайн бесплатно в хорошем качестве


    Вы не можете начинать темы
    Вы не можете отвечать на сообщения
    Вы не можете редактировать свои сообщения
    Вы не можете удалять свои сообщения
    Вы не можете голосовать в опросах
    Вы не можете прикреплять файлы к сообщениям
    Вы можете скачивать файлы