1 сезон

1 сезон

iTunes

1

КиноПоиск HD

Кинопоиск HD

iTunes

13

1 сезон

RePack

30

Ultimate

ВАЖНО

ИГРА 18+

pack

RePack

MK11
pack

Легкие деньги

RePack

jed

RePack

fifa19

RePack

RDR2

RePack

NEED FOR SPEED™ PAYBACK

4 сезон

9 сезон

Бесстыжие 9 сезон

Все сериалы

все сериалы на PB.wtf

RePack

FAR CRY 5
  
Magnet ссылка

Звериная натура / Human Nature (Мишель Гондри) [2001 г, драма, комедия, BDRip] MVO pb.wtf

Звериная натура через торрент pb.wtf

Размер: 1.45 GB | Добавлен: 3 года 4 мес. назад | Торрент скачан:48 раз
Скачать  

22-11-2017 17:43 Звериная натура Скачать торрент  

Звериная натура / Human Nature
Год выпуска: 2001
Страна: Франция, США
Жанр: драма, комедия
Продолжительность: 01:36:11
Перевод: Профессиональный (многоголосый)

Режиссер: Мишель Гондри

rating

В ролях: Патриция Аркетт, Рис Айфанс, Тим Роббинс, Кен Маги, Сай Ричардсон, Дэвид Варшофски, Хилари Дафф, Стэнли ДеСантис, Питер Динклэдж, Тоби Хасс

Описание: Лила страдает врожденным дефектом — у нее повышенная волосатость тела. Повышенная настолько, что даже в медицинской энциклопедии рядом с описанием этого феномена помещена ее фотография. Пытаясь найти себя, Лила долгое время жила в лесу и даже написала несколько книг о природе и месте человека в ней, но в жизни всегда настает момент, когда самке больше всего нужна пара. И пару Лила находит в профессоре Натане Бронфмане — педантичном зануде, изучающим проблему обучения мышей хорошим манерам. Но однажды на лесной прогулке они натыкаются на дикаря, воспитанного человеком, считавшим себя обезьяной. Натан видит в этом возможность проиллюстрировать свою теорию обучения существ, но самого Паффа, как он окрестил находку, никто не спросил, надо ли ему учиться.

Качество: BDRip (Human.Nature.2001.Blu-Ray.FREEDONOR.RG NNM Club Video)
Формат: AVI
Видео: XviD, 1765 Кбит/с, 704x384, 23.976 кадр/с
Аудио: AC3, 6 ch, 384 Кбит/с
Релиз от: Koenig
скриншот   скриншот   скриншот   скриншот   скриншот   скриншот  

Общее
Полное имя : Human.Nature.2001.BDRip.avi
Формат : AVI
Формат/Информация : Audio Video Interleave
Размер файла : 1,45 Гбайт
Продолжительность : 1 ч. 36 м.
Общий поток : 2158 Кбит/сек
Программа кодирования : VirtualDubMod 1.5.10.2 (build 2540/release)
Библиотека кодирования : VirtualDubMod build 2540/release

Видео
Идентификатор : 0
Формат : MPEG-4 Visual
Профиль формата : Advanced Simple@L5
Параметр BVOP формата : 1
Параметр QPel формата : Нет
Параметр GMC формата : Без точки перехода
Параметр матрицы формата : Выборочная
Идентификатор кодека : XVID
Идентификатор кодека/Подсказка : XviD
Продолжительность : 1 ч. 36 м.
Битрейт : 1765 Кбит/сек
Ширина : 704 пикселя
Высота : 384 пикселя
Соотношение сторон : 1,85:1
Частота кадров : 23,976 (24000/1001) кадра/сек
Цветовое пространство : YUV
Субдискретизация насыщенности : 4:2:0
Битовая глубина : 8 бит
Тип развёртки : Прогрессивная
Метод сжатия : С потерями
Бит/(Пиксели*Кадры) : 0.272
Размер потока : 1,19 Гбайт (82%)
Библиотека кодирования : XviD 65

Аудио
Идентификатор : 1
Формат : AC-3
Формат/Информация : Audio Coding 3
Параметр Endianness формата : Big
Идентификатор кодека : 2000
Продолжительность : 1 ч. 36 м.
Вид битрейта : Постоянный
Битрейт : 384 Кбит/сек
Каналы : 6 каналов
Расположение каналов : Front: L C R, Side: L R, LFE
Частота : 48,0 КГц
Частота кадров : 31,250 кадров/сек (1536 spf)
Битовая глубина : 16 бит
Метод сжатия : С потерями
Размер потока : 264 Мбайт (18%)
Выравнивание : Разделение по промежуткам
Продолжительность промежутка : 42 мс. (1,00 видеокадр)
Время предзагрузки промежутка : 500 мс.
ServiceKind/String : Complete Main

pb.wtf



Скачать Звериная натура через торрент https://pic1.kartinco.top/images/11/2udq7.jpg Скачать фильм Звериная натура через торрент бесплантно в хорошем качестве Описание: Лила страдает врожденным дефектом — у нее повышенная волосатость тела. Повышенная настолько, что даже в медицинской энциклопедии ... 9.5 10 2
Торрент: Зарегистрирован [2017-11-22 17:43] · скачан: 48 раз
Статус: √ проверено
Размер: 1.45 GB
Как cкачать? Как скачать Звериная натура через торрент | UTorrent

% Раздел Тема Автор DL S | L
Фильмы [HD 720p, 1080p] (Хороший звук DUB, MVO) [ 12.72 GB ] Звериная натура / Human Nature [2001 BDRip 1080p by msltel] MVO msltel Скачать
1 | 0
Фильмы [HD 720p, 1080p] (Хороший звук DUB, MVO) [ 4.25 GB ] Звериная натура / Human Nature [2001 BDRip 720p by msltel] MVO msltel Скачать
1 | 0

28-11-2019 20:33  

Отключить всю рекламу на сайте

    Дорогой пользователь! Огромная просьба, поблагодарите релизера, оцените раздачу и оставьте свои комментарий, если Вы скачали Звериная натура через торрент бесплатно! Внесите свою лепту в развитие PiratBit!
    Комментировать посты могут только пользователи прошедшие не сложную регистрацию
    Показать сообщения:    

    Звериная натура через торрент
    Скачать бесплатно Звериная натура
    Звериная натура скачать торрент
    Звериная натура смотреть онлайн
    Cкачать фильм Звериная натура бесплатно
    Звериная натура скачать торрент в хорошем качестве
    Звериная натура смотреть онлайн бесплатно в хорошем качестве


    Вы не можете начинать темы
    Вы не можете отвечать на сообщения
    Вы не можете редактировать свои сообщения
    Вы не можете удалять свои сообщения
    Вы не можете голосовать в опросах
    Вы не можете прикреплять файлы к сообщениям
    Вы можете скачивать файлы