2 сезон

iTunes

MVO

1

2 сезон

iTunes

iTunes

1 сезон

RePack

30

Новинка

ВАЖНО

ИГРА 18+

pack

RePack

MK11
pack

Легкие деньги

RePack

jed

RePack

fifa19

RePack

RDR2

RePack

NEED FOR SPEED™ PAYBACK

4 сезон

9 сезон

Бесстыжие 9 сезон

Все сериалы

все сериалы на PB.wtf

RePack

FAR CRY 5

Anonymous, доброй ночи, мы не успеваем собрать деньги на оплату серверов за декабрь и январь, помогите нам пожалуйста в это трудное время. В качестве благодарности мы отключим Вам всю рекламу на сайте (укажите свой ник в строку Ваше имя)!

×
  
Magnet ссылка

Мадам / Madame (Аманда Штерс) [2017 г., драма, комедия, WEB-DLRip, Дубляж "iTunes"] pb.wtf

Мадам через торрент pb.wtf

Размер: 703 MB | Добавлен: 3 года 2 мес. назад | Торрент скачан:125 раз
Скачать  

22-11-2017 18:32 Мадам Скачать торрент  

Мадам / Madame
Год выпуска: 2017
Страна: Франция / LGM Productions, Made in PM
Жанр: драма, комедия
Продолжительность: 01:31:11
Перевод: Дубляж (iTunes)

Режиссер: Аманда Штерс

rating

В ролях: Тони Коллетт, Харви Кейтель, Росси де Пальма, Майкл Смайли, Кристиан Абарт, Сью Канн, Жозефин де ла Буме, Тим Феллингэм, Виолэйн Джилиберт, Станислас Мерхар

Описание: Богатая пара в Париже собирает гостей на званый ужин. Ждут мэра Лондона и других аристократов, но за столом 13 приборов. И хозяйка, из суеверия, просит служанку присоединиться к трапезе. Мария оказывается за столом инкогнито, и в нее влюбляется богатый коллекционер искусства.

Качество: WEB-DLRip
Формат: AVI
Видео кодек: XviD
Аудио кодек: AC3
Видео: 640x272 (2.35:1), 24.000 fps, XviD build 50 ~949 kbps avg, 0.23 bit/pixel
Аудио: 48 kHz, MPEG Layer 3, 2 ch, ~128.00 kbps avg
скриншот   скриншот   скриншот   скриншот  

Общее
Полное имя : F:\ФИЛЬМЫ\Мадам.2017.D.WEB-DLRip.700MB.avi
Формат : AVI
Формат/Информация : Audio Video Interleave
Размер файла : 703 Мбайт
Продолжительность : 1 ч. 31 м.
Общий поток : 1078 Кбит/сек
Программа кодирования : VirtualDubMod 1.5.10.3 | www.virtualdub-fr.org || (build 2550/release)
Библиотека кодирования : VirtualDubMod build 2550/release

Видео
Идентификатор : 0
Формат : MPEG-4 Visual
Профиль формата : Advanced Simple@L5
Настройки формата : BVOP1
Параметр BVOP формата : 1
Параметр QPel формата : Нет
Параметр GMC формата : Без точки перехода
Параметр матрицы формата : Default (MPEG)
Идентификатор кодека : XVID
Идентификатор кодека/Подсказка : XviD
Продолжительность : 1 ч. 31 м.
Битрейт : 950 Кбит/сек
Ширина : 640 пикселей
Высота : 272 пикселя
Соотношение сторон : 2,35:1
Частота кадров : 24,000 кадра/сек
Цветовое пространство : YUV
Субдискретизация насыщенности : 4:2:0
Битовая глубина : 8 бит
Тип развёртки : Прогрессивная
Метод сжатия : С потерями
Бит/(Пиксели*Кадры) : 0.227
Размер потока : 620 Мбайт (88%)
Библиотека кодирования : XviD 1.2.1 (UTC 2008-12-04)

Аудио
Идентификатор : 1
Формат : MPEG Audio
Версия формата : Version 1
Профиль формата : Layer 3
Настройки формата : Joint stereo
Идентификатор кодека : 55
Идентификатор кодека/Подсказка : MP3
Продолжительность : 1 ч. 24 м.
Вид битрейта : Постоянный
Битрейт : 128 Кбит/сек
Каналы : 2 канала
Частота : 48,0 КГц
Частота кадров : 41,667 кадра/сек (1152 SPF)
Метод сжатия : С потерями
Размер потока : 77,5 Мбайт (11%)
Выравнивание : Соединение по промежуткам
Продолжительность промежутка : 45 мс. (1,08 видеокадр)
Время предзагрузки промежутка : 504 мс.
Библиотека кодирования : LAME3.99r
Настройки программы : -m j -V 4 -q 2 -lowpass 17 -b 128

pb.wtf



Скачать Мадам через торрент https://pic1.kartinco.top/images/11/45m21.jpg Скачать фильм Мадам через торрент бесплантно в хорошем качестве Описание: Богатая пара в Париже собирает гостей на званый ужин. Ждут мэра Лондона и других аристократов, но за столом 13 приборов. И ... 10 10 4
Торрент: Зарегистрирован [2017-11-22 18:32] · скачан: 125 раз
Статус: √ проверено
Размер: 703 MB
Как cкачать? Как скачать Мадам через торрент | UTorrent

% Раздел Тема Автор DL S | L
Фильмы [HD 720p, 1080p] (Хороший звук DUB, MVO) [ 7.69 GB ] Мадам / Madame [2017 BDRip 1080p] bober100 Скачать
1 | 0
Фильмы 2017 [DVDrip, WEB-DLRip, HDrip] (DUB, MVO) [ 1.42 GB ] Мадам / Madame [2017 BDRip] - Twi7ter Скачать
1 | 0
Фильмы 2017 [DVDrip, WEB-DLRip, HDrip] (DUB, MVO) [ 1.42 GB ] Мадам / Madame [2017 BDRip] bober100 Скачать
1 | 0
Фильмы (Blu-ray, BD-Remux, HDDVD) [ 23.47 GB ] Мадам / Madame [2017 BD Remux 1080p] bober100 Скачать
1 | 0
Лесбиянки [ 856 MB ] Девушки мадам Евы / Les filles de Madame Eva / Madam Eva and her Girls [2017 Feature Lesbian Dildo France DVDRip] Pir@tya2010 Скачать
1 | 0
Порно фильмы HD [ 28.26 GB ] Мадам Ева и ее Подружки / Les Filles De Madame Eva / Madam Eva And Her Girls [2017 18+ Teens MILFs All Girl / Lesbian All Sex Sex Toy Play Feature Threesome WEB-DL 2160p] Pir@tya2010 Скачать
1 | 0
Фильмы (WEB-DL 720p, 1080p) [ 3.15 GB ] Мадам / Madame [2017 WEB-DL 1080p] bober100 Скачать
1 | 0

28-11-2019 20:33  

Отключить всю рекламу на сайте

26-11-2017 15:32 Мадам Скачать торрент  

скачал, жуткий рассинхрон, перекачаю другую версиюpb.wtf



    Дорогой пользователь! Огромная просьба, поблагодарите релизера, оцените раздачу и оставьте свои комментарий, если Вы скачали Мадам через торрент бесплатно! Внесите свою лепту в развитие PiratBit!
    Комментировать посты могут только пользователи прошедшие не сложную регистрацию
    Показать сообщения:    

    Мадам через торрент
    Скачать бесплатно Мадам
    Мадам скачать торрент
    Мадам смотреть онлайн
    Cкачать фильм Мадам бесплатно
    Мадам скачать торрент в хорошем качестве
    Мадам смотреть онлайн бесплатно в хорошем качестве


    Вы не можете начинать темы
    Вы не можете отвечать на сообщения
    Вы не можете редактировать свои сообщения
    Вы не можете удалять свои сообщения
    Вы не можете голосовать в опросах
    Вы не можете прикреплять файлы к сообщениям
    Вы можете скачивать файлы