2 сезон

iTunes

MVO

1

2 сезон

iTunes

iTunes

1 сезон

RePack

30

Новинка

ВАЖНО

ИГРА 18+

pack

RePack

MK11
pack

Легкие деньги

RePack

jed

RePack

fifa19

RePack

RDR2

RePack

NEED FOR SPEED™ PAYBACK

4 сезон

9 сезон

Бесстыжие 9 сезон

Все сериалы

все сериалы на PB.wtf

RePack

FAR CRY 5

Anonymous, добрый вечер, мы не успеваем собрать деньги на оплату серверов за декабрь и январь, помогите нам пожалуйста в это трудное время. В качестве благодарности мы отключим Вам всю рекламу на сайте (укажите свой ник в строку Ваше имя)!

×
  
Magnet ссылка

Голем / The Limehouse Golem (Хуан Карлос Медина) [2016, ужасы, триллер, BDRip-AVC] DUB [iTunes] +MVO [AlexFilm] pb.wtf

Голем через торрент pb.wtf

Размер: 1.99 GB | Добавлен: 3 года 2 мес. назад | Торрент скачан:803 раза
Скачать  

22-11-2017 19:35 Голем Скачать торрент  

Голем / The Limehouse Golem

Год выпуска: 2016
Страна: Великобритания
Жанр: ужасы, триллер
Продолжительность: 01:48:46
Перевод: Дубляж (iTunes), многоголосый закадровый (AlexFilm)
Субтитры: Английские
Реклама: Отсутствует

Режиссёр: Хуан Карлос Медина

rating

В ролях:

Оливия Кук, Билл Найи, Дуглас Бут, Эдди Марсан, Мария Вальверде, Сэм Рид, Пол Риттер, Дэниэл Мейс, Питер Салливан, Адам Браун и др.

Описание:

Викторианский Лондон, 1880 год. Опасный район города Лаймхауз потрясает серия жестоких убийств. Напуганные до смерти жители полагают, что в этих чудовищных и безжалостных преступлениях замешан не кто иной, как голем — глиняное существо из мифологии, оживляемое при помощи магии. Панический страх растет, убийства продолжаются. Полиция не знает, что делать, и в качестве козла отпущения главным в этом деле назначается опытный детектив, инспектор Килдэр.

Слоган: «До Джека Потрошителя у страха было другое имя»

Качество: BDRip-AVC
Формат: MKV
Видео кодек: H.264
Аудио кодек: AC3

Видео: 1024x432 (2.40:1), 24,000 fps, x264 ~1402 kbps avg, 0.132 bit/pixel
Аудио#1: 48 kHz, AC3 Dolby Digital, 3/2 (L,C,R,l,r) + LFE ch, ~384.00 kbps avg | RUS (iTunes)
Аудио#2: 48 kHz, AC3 Dolby Digital, 3/2 (L,C,R,l,r) + LFE ch, ~384.00 kbps avg | RUS (MVO AlexFilm)
Аудио#3: 48 kHz, AC3 Dolby Digital, 3/2 (L,C,R,l,r) + LFE ch, ~448.00 kbps avg | ENG
скриншот   скриншот   скриншот   скриншот  

Общее
Уникальный идентификатор : 216812168689790834277406050844973328768 (0xA31C813A7D2B8CCBBEFD084839D5E980)
Полное имя : E:OlLanDGroupThe.Limehouse.Golem.2016.BDRip(AVC).OlLanDGroup.mkv
Формат : Matroska
Версия формата : Version 2
Размер файла : 1,99 Гбайт
Продолжительность : 1 ч. 48 м.
Общий поток : 2618 Кбит/сек
Название фильма : The.Limehouse.Golem.2016 #TorpedoUK#
Дата кодирования : UTC 2017-11-22 18:42:21
Программа кодирования : mkvmerge v7.8.0 ('River Man') 32bit built on Apr 3 2015 12:11:22
Библиотека кодирования : libebml v1.3.1 + libmatroska v1.4.2
Attachments : The-Limehouse-Golem.jpg

Видео
Идентификатор : 1
Формат : AVC
Формат/Информация : Advanced Video Codec
Профиль формата : High@L4.1
Параметр CABAC формата : Да
Параметр ReFrames формата : 10 кадров
Идентификатор кодека : V_MPEG4/ISO/AVC
Продолжительность : 1 ч. 48 м.
Битрейт : 1402 Кбит/сек
Ширина : 1024 пикселя
Высота : 432 пикселя
Соотношение сторон : 2,40:1
Режим частоты кадров : Постоянный
Частота кадров : 24,000 кадра/сек
Цветовое пространство : YUV
Субдискретизация насыщенности : 4:2:0
Битовая глубина : 8 бит
Тип развёртки : Прогрессивная
Бит/(Пиксели*Кадры) : 0.132
Размер потока : 1,02 Гбайт (52%)
Библиотека кодирования : x264 core 146 r2538 121396c
Настройки программы : cabac=1 / ref=10 / deblock=1:-3:-3 / analyse=0x3:0x133 / me=umh / subme=11 / psy=1 / psy_rd=1.00:0.03 / mixed_ref=1 / me_range=48 / chroma_me=1 / trellis=2 / 8x8dct=1 / cqm=0 / deadzone=21,11 / fast_pskip=1 / chroma_qp_offset=-3 / threads=6 / lookahead_threads=1 / sliced_threads=0 / nr=0 / decimate=1 / interlaced=0 / bluray_compat=0 / constrained_intra=0 / bframes=10 / b_pyramid=2 / b_adapt=2 / b_bias=0 / direct=3 / weightb=1 / open_gop=0 / weightp=2 / keyint=240 / keyint_min=24 / scenecut=40 / intra_refresh=0 / rc_lookahead=40 / rc=2pass / mbtree=0 / bitrate=1402 / ratetol=1.0 / qcomp=0.60 / qpmin=0 / qpmax=69 / qpstep=4 / cplxblur=20.0 / qblur=0.5 / vbv_maxrate=50000 / vbv_bufsize=62500 / nal_hrd=none / filler=0 / ip_ratio=1.40 / pb_ratio=1.30 / aq=1:1.00
Язык : English
Default : Да
Forced : Нет

Аудио #1
Идентификатор : 2
Формат : AC-3
Формат/Информация : Audio Coding 3
Расширение режима : CM (complete main)
Параметр Endianness формата : Big
Идентификатор кодека : A_AC3
Продолжительность : 1 ч. 48 м.
Вид битрейта : Постоянный
Битрейт : 384 Кбит/сек
Каналы : 6 каналов
Расположение каналов : Front: L C R, Side: L R, LFE
Частота : 48,0 КГц
Частота кадров : 31,250 кадров/сек (1536 spf)
Битовая глубина : 16 бит
Метод сжатия : С потерями
Размер потока : 298 Мбайт (15%)
Заголовок : iTunes
Язык : Russian
Default : Да
Forced : Нет

Аудио #2
Идентификатор : 3
Формат : AC-3
Формат/Информация : Audio Coding 3
Расширение режима : CM (complete main)
Параметр Endianness формата : Big
Идентификатор кодека : A_AC3
Продолжительность : 1 ч. 48 м.
Вид битрейта : Постоянный
Битрейт : 384 Кбит/сек
Каналы : 6 каналов
Расположение каналов : Front: L C R, Side: L R, LFE
Частота : 48,0 КГц
Частота кадров : 31,250 кадров/сек (1536 spf)
Битовая глубина : 16 бит
Метод сжатия : С потерями
Размер потока : 298 Мбайт (15%)
Заголовок : AlexFilm
Язык : Russian
Default : Нет
Forced : Нет

Аудио #3
Идентификатор : 4
Формат : AC-3
Формат/Информация : Audio Coding 3
Расширение режима : CM (complete main)
Параметр Endianness формата : Big
Идентификатор кодека : A_AC3
Продолжительность : 1 ч. 48 м.
Вид битрейта : Постоянный
Битрейт : 448 Кбит/сек
Каналы : 6 каналов
Расположение каналов : Front: L C R, Side: L R, LFE
Частота : 48,0 КГц
Частота кадров : 31,250 кадров/сек (1536 spf)
Битовая глубина : 16 бит
Метод сжатия : С потерями
Размер потока : 348 Мбайт (17%)
Заголовок : Original
Язык : English
Default : Нет
Forced : Нет

Текст
Идентификатор : 5
Формат : UTF-8
Идентификатор кодека : S_TEXT/UTF8
Идентификатор кодека/Информация : UTF-8 Plain Text
Заголовок : Full
Язык : English
Default : Нет
Forced : Нет

Меню
00:00:00.000 : en:00:00:00.000
00:08:02.375 : en:00:08:02.375
00:17:45.333 : en:00:17:45.333
00:24:37.958 : en:00:24:37.958
00:36:20.125 : en:00:36:20.125
00:46:17.750 : en:00:46:17.750
00:55:19.625 : en:00:55:19.625
01:07:52.333 : en:01:07:52.333
01:15:51.292 : en:01:15:51.292
01:24:56.125 : en:01:24:56.125
01:31:49.208 : en:01:31:49.208
01:38:13.208 : en:01:38:13.208

pb.wtf



Скачать Голем через торрент http://s009.radikal.ru/i307/1710/27/2c4cc21aeea6.jpg Скачать фильм Голем через торрент бесплантно в хорошем качестве Описание: Викторианский Лондон, 1880 год. Опасный район города Лаймхауз потрясает серия жестоких убийств. Напуганные до смерти жители ... 9.1 10 11
Торрент: Зарегистрирован [2017-11-22 19:35] · скачан: 803 раз
Статус: √ проверено
Размер: 1.99 GB
Как cкачать? Как скачать Голем через торрент | UTorrent

% Раздел Тема Автор DL S | L
Фильмы 2016 [DVDrip, WEB-DLRip, HDrip] (DUB, MVO) [ 1.41 GB ] Голем / The Limehouse Golem [2016 BDRip] - Twi7ter Скачать
1 | 0
Фильмы (Blu-ray, BD-Remux, HDDVD) [ 19.03 GB ] Голем / The Limehouse Golem [2016 BD Remux 1080р] +MVO [AlexFilm] bober100 Скачать
2 | 0
Фильмы (WEB-DL 720p, 1080p) [ 4.07 GB ] Голем / The Limehouse Golem [2016 WEB-DL 1080p] [MVO] killermax2013 Скачать
1 | 0
Видео для КПК и Смартфонов [ 413 MB ] Голем / The Limehouse Golem [2016 HDRip КПК] bober100 Скачать
1 | 0
Фильмы 2016 [DVDrip, WEB-DLRip, HDrip] (DUB, MVO) [ 1.41 GB ] Голем / The Limehouse Golem [2016 BDRip-AVC] Dub sokol_ok Скачать
5 | 0
Фильмы 2016 [DVDrip, WEB-DLRip, HDrip] (DUB, MVO) [ 2.05 GB ] Голем / The Limehouse Golem [2016 WEB-DLRip] MVO [AlexFilm] bober100 Скачать
1 | 0
Фильмы 2016 [DVDrip, WEB-DLRip, HDrip] (DUB, MVO) [ 746 MB ] Голем / The Limehouse Golem [2016 BDRip-AVC] Dub sokol_ok Скачать
2 | 0

28-11-2019 20:33  

Отключить всю рекламу на сайте


    Дорогой пользователь! Огромная просьба, поблагодарите релизера, оцените раздачу и оставьте свои комментарий, если Вы скачали Голем через торрент бесплатно! Внесите свою лепту в развитие PiratBit!
    Комментировать посты могут только пользователи прошедшие не сложную регистрацию
    Показать сообщения:    

    Голем через торрент
    Скачать бесплатно Голем
    Голем скачать торрент
    Голем смотреть онлайн
    Cкачать фильм Голем бесплатно
    Голем скачать торрент в хорошем качестве
    Голем смотреть онлайн бесплатно в хорошем качестве


    Вы не можете начинать темы
    Вы не можете отвечать на сообщения
    Вы не можете редактировать свои сообщения
    Вы не можете удалять свои сообщения
    Вы не можете голосовать в опросах
    Вы не можете прикреплять файлы к сообщениям
    Вы можете скачивать файлы