Ссылка на приватное зеркало всего за 1$. Внимание количество ограничено!!!

iTunes

iTunes

iTunes

1

iTunes

iTunes

iTunes

iTunes

iTunes

30
pack

$ от Little Big

ВАЖНО

!!Акция!!

Alien_RageХит недели

RePack

Resident Evil 21

ИГРА 18+

pack

RePack

jed

!!Акция!!

Alien_Rage

RePack

fifa19

RePack

Assassins Creed: Odyssey

RePack

NEED FOR SPEED™ PAYBACK

4 сезон

9 сезон

Бесстыжие 9 сезон

Все сериалы

все сериалы на PB.wtf

RePack

FAR CRY 5
  

Скрюченный домишко / Crooked House (Жиль Паке-Бреннер) [2017, Драма, Криминал, Детектив, WEB-DL 1080p] MVO [Лицензия / iTunes] pb.wtf

Скрюченный домишко через торрент pb.wtf

Размер: 4.31 GB | Добавлен: 2 года 7 мес. назад | Торрент скачан:1747 раз
Скачать  

22-11-2017 22:16 Скрюченный домишко Скачать торрент  

Скрюченный домишко / Crooked HouseГод выпуска: 2017
Страна: Великобритания
Жанр: Драма, Криминал, Детектив
Продолжительность: 01:54:46
Перевод: Профессиональный многоголосый - [Лицензия / iTunes]
Субтитры: английские

Режиссер: Жиль Паке-Бреннер

rating

В ролях:

Кристина Хендрикс, Джиллиан Андерсон, Гленн Клоуз, Макс Айронс, Теренс Стэмп, Аманда Аббингтон, Стефани Мартини, Джулиан Сэндс, Роджер Эштон-Гриффитс, Кристиан МакКэй

Описание:

София, внучка олигарха Аристида Леонидиса, приглашает частного детектива Чарльза Хейуорда расследовать убийство ее дедушки. Она уверена: кто-то из домочадцев отравил его. Взявшись за расследование, Чарльз выясняет, что мотив мог быть у всех. Даже у Софии…

Качество: WEB-DL 1080p
Формат: MKV
Видео кодек: H.264
Аудио кодек: AC3

Видео: AVC/H.264, 1920x858, 4 602 Kbps, 24 fps
Аудио#1: AC3, 6 ch, 384 Kbps - Русский (MVO)
Аудио#2: AC3, 6 ch, 384 Kbps - Английский
скриншот   скриншот   скриншот   скриншот  

Общее
Уникальный идентификатор : 211609642657882435422566304015646294809 (0x9F3288E42B627CFBBF1CD7524A318319)
Полное имя : D:\Crooked.House.2017.WEB-DL.1080p.mkv
Формат : Matroska
Версия формата : Version 4 / Version 2
Размер файла : 4,31 Гбайт
Продолжительность : 1 ч. 54 м.
Общий поток : 5368 Кбит/сек
Дата кодирования : UTC 2017-11-22 21:05:05
Программа кодирования : mkvmerge v17.0.0 ('Be Ur Friend') 64-bit
Библиотека кодирования : libebml v1.3.5 + libmatroska v1.4.8

Видео
Идентификатор : 1
Формат : AVC
Формат/Информация : Advanced Video Codec
Профиль формата : High@L4
Параметр CABAC формата : Да
Параметр ReFrames формата : 5 кадров
Идентификатор кодека : V_MPEG4/ISO/AVC
Продолжительность : 1 ч. 54 м.
Битрейт : 4602 Кбит/сек
Ширина : 1920 пикселей
Высота : 858 пикселей
Соотношение сторон : 2,25:1
Режим частоты кадров : Постоянный
Частота кадров : 24,000 кадра/сек
Цветовое пространство : YUV
Субдискретизация насыщенности : 4:2:0
Битовая глубина : 8 бит
Тип развёртки : Прогрессивная
Бит/(Пиксели*Кадры) : 0.114
Размер потока : 3,60 Гбайт (84%)
Язык : English
Default : Да
Forced : Нет
Цветовой диапазон : Limited
Основные цвета : BT.709
Характеристики трансфера : BT.709
Коэффициенты матрицы : BT.709

Аудио #1
Идентификатор : 2
Формат : AC-3
Формат/Информация : Audio Coding 3
Расширение режима : CM (complete main)
Параметр Endianness формата : Big
Идентификатор кодека : A_AC3
Продолжительность : 1 ч. 54 м.
Вид битрейта : Постоянный
Битрейт : 384 Кбит/сек
Каналы : 6 каналов
Расположение каналов : Front: L C R, Side: L R, LFE
Частота : 48,0 КГц
Частота кадров : 31,250 кадров/сек (1536 spf)
Метод сжатия : С потерями
Задержка видео : -42 мс.
Размер потока : 315 Мбайт (7%)
Язык : Russian
Default : Да
Forced : Нет

Аудио #2
Идентификатор : 3
Формат : AC-3
Формат/Информация : Audio Coding 3
Расширение режима : CM (complete main)
Параметр Endianness формата : Big
Идентификатор кодека : A_AC3
Продолжительность : 1 ч. 54 м.
Вид битрейта : Постоянный
Битрейт : 384 Кбит/сек
Каналы : 6 каналов
Расположение каналов : Front: L C R, Side: L R, LFE
Частота : 48,0 КГц
Частота кадров : 31,250 кадров/сек (1536 spf)
Метод сжатия : С потерями
Задержка видео : -42 мс.
Размер потока : 315 Мбайт (7%)
Язык : English
Default : Нет
Forced : Нет

Текст
Идентификатор : 4
Формат : UTF-8
Идентификатор кодека : S_TEXT/UTF8
Идентификатор кодека/Информация : UTF-8 Plain Text
Язык : English
Default : Нет
Forced : Нет

Меню
00:00:00.000 : en:Chapter 1
00:09:08.458 : en:Chapter 2
00:15:57.291 : en:Chapter 3
00:22:51.666 : en:Chapter 4
00:29:58.624 : en:Chapter 5
00:34:53.707 : en:Chapter 6
00:40:30.873 : en:Chapter 7
00:47:24.039 : en:Chapter 8
00:52:45.164 : en:Chapter 9
00:57:50.997 : en:Chapter 10
01:07:03.497 : en:Chapter 11
01:13:31.205 : en:Chapter 12
01:20:24.705 : en:Chapter 13
01:28:38.038 : en:Chapter 14
01:34:34.371 : en:Chapter 15
01:40:00.037 : en:Chapter 16

pb.wtf



Скачать Скрюченный домишко через торрент http://s019.radikal.ru/i619/1711/dd/0749670bec79.jpg Скачать фильм Скрюченный домишко через торрент бесплантно в хорошем качестве Описание: София, внучка олигарха Аристида Леонидиса, приглашает частного детектива Чарльза Хейуорда расследовать убийство ее дедушки. Она ... 9.9 10 33
Info! Золотая раздача, скачанное не засчитывается.
Торрент: Зарегистрирован [2017-11-22 22:16] · скачан: 1 747 раз
Статус: √ проверено
Размер: 4.31 GB
Как cкачать? Как скачать Скрюченный домишко через торрент | qTorrent

% Раздел Тема Автор DL S | L
Фильмы 2017 [DVDrip, WEB-DLRip, HDrip] (DUB, MVO) [ 1.41 GB ] Скрюченный домишко / Crooked House [2017 BDRip] MVO Twi7ter Скачать
10 | 0
Фильмы 2017 [DVDrip, WEB-DLRip, HDrip] (DUB, MVO) [ 1.41 GB ] Скрюченный домишко / Crooked House [2017 BDRip] MVO bober100 Скачать
1 | 0
# Фильмы 2017 [DVDrip, WEB-DLRip, HDrip] (DUB, MVO) [ 3.94 GB ] Скрюченный домишко / Crooked House [2017 HDRip-AVC] MVO WorldSM Скачать
1 | 0
Фильмы 2017 [DVDrip, WEB-DLRip, HDrip] (DUB, MVO) [ 2.04 GB ] Скрюченный домишко / Crooked House [2017 WEB-DLRip] [MVO] killermax2013 Скачать
1 | 0

28-11-2019 20:33  

Отключить всю рекламу на сайте

16-12-2017 12:10 Скрюченный домишко Скачать торрент  

неплохой фильмpb.wtf



    Дорогой пользователь! Огромная просьба, поблагодарите релизера, оцените раздачу и оставьте свои комментарий, если Вы скачали Скрюченный домишко через торрент бесплатно! Внесите свою лепту в развитие PiratBit!
    Комментировать посты могут только пользователи прошедшие не сложную регистрацию
    Показать сообщения:    

    Скрюченный домишко через торрент
    Скачать бесплатно Скрюченный домишко
    Скрюченный домишко скачать торрент
    Скрюченный домишко смотреть онлайн
    Cкачать фильм Скрюченный домишко бесплатно
    Скрюченный домишко скачать торрент в хорошем качестве
    Скрюченный домишко смотреть онлайн бесплатно в хорошем качестве


    Вы не можете начинать темы
    Вы не можете отвечать на сообщения
    Вы не можете редактировать свои сообщения
    Вы не можете удалять свои сообщения
    Вы не можете голосовать в опросах
    Вы не можете прикреплять файлы к сообщениям
    Вы можете скачивать файлы