Ссылка на приватное зеркало нашего сайта всего за 1$. Внимание количество ограничено!!!

2 сезон

iTunes

1 сезон

1

2 сезон

2 сезон

iTunes

1 сезон

RePack

30

Ultimate

ВАЖНО

ИГРА 18+

pack

RePack

MK11
pack

Забери бонус

RePack

jed

!!Акция!!

Alien_Rage

RePack

fifa19

RePack

Assassins Creed: Odyssey

RePack

NEED FOR SPEED™ PAYBACK

4 сезон

9 сезон

Бесстыжие 9 сезон

Все сериалы

все сериалы на PB.wtf

RePack

FAR CRY 5
  

Забытые Богом / Godless / Сезон: 1 / Серии: 1-7 из 7 (Скотт Фрэнк) [2017, вестерн, WEBRip 720p] MVO [BaibaKo] pb.wtf

Забытые Богом через торрент pb.wtf

Размер: 16 GB | Добавлен: 3 года назад | Торрент скачан:71 раз
Скачать  

22-11-2017 22:52 Забытые Богом Скачать торрент  

Забытые Богом / GodlessГод выпуска: 2017
Страна: США
Жанр: вестерн
Продолжительность: 7 x ~ 00:55:00
Перевод: Профессиональный многоголосый BaibaKo
Субтитры: отсутствуют

Режиссер: Скотт Фрэнк

rating

В ролях:

Сэмюэл Марти, Люк Робертсон, Рио Александр, Джолин Бауман, Джереми Бобб, Томас Сэнгстер, Кэйли Картер, Дональд Серроне, Ким Коутс, Джефф Дэниелс

Описание:

Действие происходит в 1884 году. Зловещий бандит, Фрэнк Гриффин, терроризирует дикий Запад в поисках своего приемного сына и одновременно бывшего партнера, Роя Гуда, которого внезапно заела совесть и он свалил от Фрэнка с награбленным с последнего налета. Поиски приводят Фрэнка к тихому городку Ла Белль, в котором, по странным обстоятельствам, обитают одни женщины.

Качество: WEBRip 720p
Формат: MKV
Видео кодек: H.264
Аудио кодек: AC3

Видео: MPEG-4 AVC, ~ 4200 Кбит/с, 1280x720
Аудио#1: Русский (AC3, 6 ch, 384 Кбит/с)
Аудио#2: английский (AC3, 6 ch, 384 Кбит/с)
скриншот   скриншот   скриншот   скриншот   скриншот  

Общее
Уникальный идентификатор : 200480306130100595032554229238007346072 (0x96D31A3C5D4B1E8F819342E8C5F03398)
Полное имя : D:\Godless.s01.HD720p.WEBRip.Rus.Eng.BaibaKo.tv\Godless.s01e01.HD720p.WEBRip.Rus.Eng.BaibaKo.tv.mkv
Формат : Matroska
Версия формата : Version 4 / Version 2
Размер файла : 2,47 Гбайт
Продолжительность : 1 ч. 11 м.
Общий поток : 4946 Кбит/сек
Дата кодирования : UTC 2017-11-22 20:44:43
Программа кодирования : mkvmerge v13.0.0 ('The Juggler') 64bit
Библиотека кодирования : libebml v1.3.4 + libmatroska v1.4.5
Writing frontend : StaxRip v1.6.0.0

Видео
Идентификатор : 1
Формат : AVC
Формат/Информация : Advanced Video Codec
Профиль формата : High@L3.1
Параметр CABAC формата : Да
Параметр ReFrames формата : 3 кадра
Идентификатор кодека : V_MPEG4/ISO/AVC
Продолжительность : 1 ч. 11 м.
Битрейт : 4176 Кбит/сек
Ширина : 1280 пикселей
Высота : 720 пикселей
Соотношение сторон : 16:9
Режим частоты кадров : Постоянный
Частота кадров : 23,976 (24000/1001) кадра/сек
Цветовое пространство : YUV
Субдискретизация насыщенности : 4:2:0
Битовая глубина : 8 бит
Тип развёртки : Прогрессивная
Бит/(Пиксели*Кадры) : 0.189
Размер потока : 2,09 Гбайт (84%)
Default : Да
Forced : Нет

Аудио #1
Идентификатор : 2
Формат : AC-3
Формат/Информация : Audio Coding 3
Расширение режима : CM (complete main)
Параметр Endianness формата : Big
Идентификатор кодека : A_AC3
Продолжительность : 1 ч. 11 м.
Вид битрейта : Постоянный
Битрейт : 384 Кбит/сек
Каналы : 6 каналов
Расположение каналов : Front: L C R, Side: L R, LFE
Частота : 48,0 КГц
Частота кадров : 31,250 кадров/сек (1536 spf)
Метод сжатия : С потерями
Размер потока : 196 Мбайт (8%)
Язык : Russian
Default : Нет
Forced : Нет

Аудио #2
Идентификатор : 3
Формат : AC-3
Формат/Информация : Audio Coding 3
Расширение режима : CM (complete main)
Параметр Endianness формата : Big
Идентификатор кодека : A_AC3
Продолжительность : 1 ч. 11 м.
Вид битрейта : Постоянный
Битрейт : 384 Кбит/сек
Каналы : 6 каналов
Расположение каналов : Front: L C R, Side: L R, LFE
Частота : 48,0 КГц
Частота кадров : 31,250 кадров/сек (1536 spf)
Метод сжатия : С потерями
Размер потока : 196 Мбайт (8%)
Язык : English
Default : Нет
Forced : Нет

Внимание! Раздача ведётся путём добавления новых серий; при каждом добавлении создаётся новый торрент. Чтобы начать докачку новой серии, пользователям необходимо сделать следующее:
(1) остановить скачивание,
(2) удалить старый торрент у себя из клиента (старые серии удалять не надо),
(3) скачать новый торрент и запустить его у себя в клиенте вместо старого, при этом указать клиенту путь в старую папку куда и должно происходить скачивание новых серий.
Ваш клиент при этом должен произвести хеширование (проверку) старой папки (если не производит сам - помогите ему сделать это), и будет докачивать только те серии которых у вас ещё нет. Старые серии при этом не удаляются, а продолжают раздаваться!
Eсли вы уже удалили старые серии, то предотвратить повторную закачку старых серий можно, отжав галочку в соответствующих местах при запуске нового торрента. По возможности, желательно не удалять старые серии как можно дольше чтобы релизёр не столько продолжал раздавать старые серии, а смог сконцентрироваться на новых.
pb.wtf



Скачать Забытые Богом через торрент http://s018.radikal.ru/i505/1711/2d/d66e150a31f3.jpg Скачать фильм Забытые Богом через торрент бесплантно в хорошем качестве Описание: Действие происходит в 1884 году. Зловещий бандит, Фрэнк Гриффин, терроризирует дикий Запад в поисках своего приемного сына и ... 10 10 5
Info! Золотая раздача, скачанное не засчитывается.
Торрент: Зарегистрирован [2017-11-24 10:09] · скачан: 71 раз
Статус: √ проверено
Размер: 16 GB
Как cкачать? Как скачать Забытые Богом через торрент | qTorrent

% Раздел Тема Автор DL S | L
Зарубежные сериалы [ 13.38 GB ] Забытые Богом / Godless / Сезон: 1 / Серии: 1-7 из 7 [2017 WEB-DL 1080p] MVO [LostFilm] bober100 Скачать
1 | 0
Зарубежные сериалы [ 13.72 GB ] Забытые Богом / Godless / Сезон: 1 / Серии: 1-7 из 7 [2017 WEBRip 720p] MVO [Jaskier] bober100 Скачать
1 | 0
Зарубежные сериалы [ 5.47 GB ] Забытые Богом / Godless / Сезон: 1 / Серии: 1-7 из 7 [2017 WEBRip] MVO [Jaskier] bober100 Скачать
1 | 0
Зарубежные сериалы [ 24.77 GB ] Забытые Богом / Godless / Сезон: 1 / Серии: 1-7 из 7 [2017 WEBRip 1080p] MVO [Jaskier] bober100 Скачать
1 | 0
Зарубежные сериалы [ 24.77 GB ] Забытые Богом / Безбожники / Godless / Сезон: 1 / Серии: 1-7 из 7 [2017 WEBRip 1080p] [MVO] killermax2013 Скачать
1 | 0
Зарубежные сериалы [ 8.8 GB ] Забытые Богом / Безбожники / Godless / Сезон: 1 / Серии: 1-7 из 7 [2017 WEBRip-AVC] [MVO] killermax2013 Скачать
1 | 0
Зарубежные сериалы [ 9.48 GB ] Забытые Богом / Godless / Сезон: 1 / Серии: 1-7 из 7 [2017 WEBRip 720p] MVO [NewStudio] bober100 Скачать
1 | 0

28-11-2019 20:33  

Отключить всю рекламу на сайте

    Дорогой пользователь! Огромная просьба, поблагодарите релизера, оцените раздачу и оставьте свои комментарий, если Вы скачали Забытые Богом через торрент бесплатно! Внесите свою лепту в развитие PiratBit!
    Комментировать посты могут только пользователи прошедшие не сложную регистрацию
    Показать сообщения:    

    Забытые Богом через торрент
    Скачать бесплатно Забытые Богом
    Забытые Богом скачать торрент
    Забытые Богом смотреть онлайн
    Cкачать фильм Забытые Богом бесплатно
    Забытые Богом скачать торрент в хорошем качестве
    Забытые Богом смотреть онлайн бесплатно в хорошем качестве


    Вы не можете начинать темы
    Вы не можете отвечать на сообщения
    Вы не можете редактировать свои сообщения
    Вы не можете удалять свои сообщения
    Вы не можете голосовать в опросах
    Вы не можете прикреплять файлы к сообщениям
    Вы можете скачивать файлы