Ссылка на приватное зеркало нашего сайта всего за 1$. Внимание количество ограничено!!!

2 сезон

iTunes

1 сезон

1

2 сезон

2 сезон

iTunes

1 сезон

RePack

30

Новинка

ВАЖНО

ИГРА 18+

pack

RePack

MK11
pack

Забери бонус

RePack

jed

!!Акция!!

Alien_Rage

RePack

fifa19

RePack

Assassins Creed: Odyssey

RePack

NEED FOR SPEED™ PAYBACK

4 сезон

9 сезон

Бесстыжие 9 сезон

Все сериалы

все сериалы на PB.wtf

RePack

FAR CRY 5
  

Забытые Богом / Godless / Сезон: 1 / Серия: 1-7 из 7 (Скотт Фрэнк) [2017, Вестерн, WEBRip 1080p] [MVO] (OmskBird) pb.wtf

Забытые Богом через торрент pb.wtf

Размер: 13.38 GB | Добавлен: 3 года назад | Торрент скачан:28 раз
Скачать  

23-11-2017 07:55 Забытые Богом Скачать торрент  

Забытые Богом / Godless Год выпуска: 2017
Страна: США
Жанр: Вестерн
Продолжительность: ~01:10:46
Перевод: Любительский (многоголосый закадровый) OmskBird

Режиссёр: Скотт Фрэнк

В ролях: Сэмюэл Марти, Люк Робертсон, Рио Александр, Джолин Бауман, Джереми Бобб, Томас Сэнгстер, Кэйли Картер, Дональд Серроне, Ким Коутс, Джефф Дэниелс и другие.

Описание: Действие происходит в 1884 году. Зловещий бандит, Фрэнк Гриффин, терроризирует дикий Запад в поисках своего приемного сына и одновременно бывшего партнера, Роя Гуда, которого внезапно заела совесть и он свалил от Фрэнка с награбленным с последнего налета. Поиски приводят Фрэнка к тихому городку Ла Белль, в котором, по странным обстоятельствам, обитают одни женщины.

Релиз-группа:
Перевод: Татьяна Масаковская и Николай Исаков
Роли озвучивали: Семён Ващенко, Павел Ярощик, Ольга Федорова, Анастасия Флигина
Звукорежиссер: Павел Квентов
Постер: Ксения Просветова



Качество: WEBRip 1080p
Формат: MKV
Видео: AVC/H.264, 1920x1080 (16:9), ~3160 Kbps, 23.976 fps
Аудио # Rus: AC3, 48 kHz, 6 ch, 384 kbps
Аудио # Eng: AC3, 48 kHz, 6 ch, 384 kbps
Субтитры: Английские
General
Unique ID : 214217202786348946326600770538514241242 (0xA128BB88103044AB886C574EAC4156DA)
Complete name : G:\Films\Godless.S01.1080p.WEBRip.OmskBird\Godless.S01E01.1080p.WEBRip.OmskBird.mkv
Format : Matroska
Format version : Version 4 / Version 2
File size : 1.90 GiB
Duration : 1h 10mn
Overall bit rate mode : Variable
Overall bit rate : 3 851 Kbps
Encoded date : UTC 2017-11-23 04:29:30
Writing application : mkvmerge v18.0.0 ('Apricity') 64-bit
Writing library : libebml v1.3.5 + libmatroska v1.4.8
Cover : Yes
Attachments : small_cover.jpg / small_cover_land.jpg / cover.jpg / cover_land.jpg

Video
ID : 1
Format : AVC
Format/Info : Advanced Video Codec
Format profile : Main@L4
Format settings, CABAC : Yes
Format settings, ReFrames : 3 frames
Codec ID : V_MPEG4/ISO/AVC
Duration : 1h 10mn
Bit rate mode : Variable
Bit rate : 3 006 Kbps
Nominal bit rate : 3 160 Kbps
Maximum bit rate : 4 740 Kbps
Width : 1 920 pixels
Height : 1 080 pixels
Display aspect ratio : 16:9
Frame rate mode : Constant
Frame rate : 23.976 (24000/1001) fps
Color space : YUV
Chroma subsampling : 4:2:0
Bit depth : 8 bits
Scan type : Progressive
Bits/(Pixel*Frame) : 0.060
Stream size : 1.49 GiB (78%)
Writing library : x264 core 148 r2714 2daf636
Encoding settings : cabac=1 / ref=3 / deblock=1:0:0 / analyse=0x1:0x111 / me=umh / subme=10 / psy=1 / psy_rd=1.00:0.00 / mixed_ref=1 / me_range=24 / chroma_me=1 / trellis=2 / 8x8dct=0 / cqm=0 / deadzone=21,11 / fast_pskip=1 / chroma_qp_offset=-2 / threads=8 / lookahead_threads=1 / sliced_threads=0 / nr=0 / decimate=1 / interlaced=0 / bluray_compat=0 / stitchable=1 / constrained_intra=0 / bframes=2 / b_pyramid=0 / b_adapt=2 / b_bias=0 / direct=3 / weightb=1 / open_gop=0 / weightp=2 / keyint=48 / keyint_min=25 / scenecut=0 / intra_refresh=0 / rc_lookahead=48 / rc=2pass / mbtree=1 / bitrate=3160 / ratetol=1.0 / qcomp=0.50 / qpmin=6 / qpmax=51 / qpstep=4 / cplxblur=20.0 / qblur=0.5 / vbv_maxrate=4740 / vbv_bufsize=6320 / nal_hrd=vbr / filler=0 / ip_ratio=1.40 / aq=1:1.00
Language : English
Default : Yes
Forced : No

Audio #1
ID : 2
Format : AC-3
Format/Info : Audio Coding 3
Mode extension : CM (complete main)
Format settings, Endianness : Big
Codec ID : A_AC3
Duration : 1h 10mn
Bit rate mode : Constant
Bit rate : 384 Kbps
Channel(s) : 6 channels
Channel positions : Front: L C R, Side: L R, LFE
Sampling rate : 48.0 KHz
Frame rate : 31.250 fps (1536 spf)
Compression mode : Lossy
Stream size : 194 MiB (10%)
Title : OmskBird 5.1
Language : Russian
Default : Yes
Forced : No

Audio #2
ID : 3
Format : AC-3
Format/Info : Audio Coding 3
Mode extension : CM (complete main)
Format settings, Endianness : Big
Codec ID : A_AC3
Duration : 1h 10mn
Bit rate mode : Constant
Bit rate : 384 Kbps
Channel(s) : 6 channels
Channel positions : Front: L C R, Side: L R, LFE
Sampling rate : 48.0 KHz
Frame rate : 31.250 fps (1536 spf)
Compression mode : Lossy
Stream size : 194 MiB (10%)
Title : eng
Language : English
Default : No
Forced : No

Text
ID : 4
Format : UTF-8
Codec ID : S_TEXT/UTF8
Codec ID/Info : UTF-8 Plain Text
Title : SDH
Language : English
Default : No
Forced : No
скриншот  скриншот  скриншот  
Внимание! Раздача ведётся путём добавления новых серий; при каждом добавлении создаётся новый торрент. Чтобы начать докачку новой серии, пользователям необходимо сделать следующее:
(1) остановить скачивание,
(2) удалить старый торрент у себя из клиента (старые серии удалять не надо),
(3) скачать новый торрент и запустить его у себя в клиенте вместо старого, при этом указать клиенту путь в старую папку куда и должно происходить скачивание новых серий.

Ваш клиент при этом должен произвести хеширование (проверку) старой папки (если не производит сам - помогите ему сделать это), и будет докачивать только те серии которых у вас ещё нет. Старые серии при этом не удаляются, а продолжают раздаваться!

Eсли вы уже удалили старые серии, то предотвратить повторную закачку старых серий можно, отжав галочку в соответствующих местах при запуске нового торрента. По возможности, желательно не удалять старые серии как можно дольше чтобы релизёр не столько продолжал раздавать старые серии, а смог сконцентрироваться на новых.
pb.wtf



Скачать Забытые Богом через торрент http://s010.youpic.su/pictures/1511391600/1a2faf44b5306ccccc921f51dbfa0f01.jpg Скачать фильм Забытые Богом через торрент бесплантно в хорошем качестве Описание: Действие происходит в 1884 году. Зловещий бандит, Фрэнк Гриффин, терроризирует дикий Запад в поисках своего приемного сына и ... 7 10 4
Info! Серебряная раздача, засчитывается только 50% скачанного.
Торрент: Зарегистрирован [2017-11-28 16:44] · скачан: 28 раз
Статус: √ проверено
Размер: 13.38 GB
Как cкачать? Как скачать Забытые Богом через торрент | qTorrent

% Раздел Тема Автор DL S | L
Зарубежные сериалы [ 13.38 GB ] Забытые Богом / Godless / Сезон: 1 / Серии: 1-7 из 7 [2017 WEB-DL 1080p] MVO [LostFilm] bober100 Скачать
1 | 0
Зарубежные сериалы [ 13.72 GB ] Забытые Богом / Godless / Сезон: 1 / Серии: 1-7 из 7 [2017 WEBRip 720p] MVO [Jaskier] bober100 Скачать
1 | 0
Зарубежные сериалы [ 5.47 GB ] Забытые Богом / Godless / Сезон: 1 / Серии: 1-7 из 7 [2017 WEBRip] MVO [Jaskier] bober100 Скачать
1 | 0
Зарубежные сериалы [ 24.77 GB ] Забытые Богом / Godless / Сезон: 1 / Серии: 1-7 из 7 [2017 WEBRip 1080p] MVO [Jaskier] bober100 Скачать
1 | 0
Зарубежные сериалы [ 24.77 GB ] Забытые Богом / Безбожники / Godless / Сезон: 1 / Серии: 1-7 из 7 [2017 WEBRip 1080p] [MVO] killermax2013 Скачать
1 | 0
Зарубежные сериалы [ 8.8 GB ] Забытые Богом / Безбожники / Godless / Сезон: 1 / Серии: 1-7 из 7 [2017 WEBRip-AVC] [MVO] killermax2013 Скачать
2 | 0
Зарубежные сериалы [ 9.48 GB ] Забытые Богом / Godless / Сезон: 1 / Серии: 1-7 из 7 [2017 WEBRip 720p] MVO [NewStudio] bober100 Скачать
1 | 0


Последний раз редактировалось: killermax2013 (2017-11-28 16:44), всего редактировалось 1 раз

28-11-2019 20:33  

Отключить всю рекламу на сайте

24-11-2017 11:02 Забытые Богом Скачать торрент  

+2-3pb.wtf



28-11-2017 16:44 Забытые Богом Скачать торрент  

+4-7pb.wtf



    Дорогой пользователь! Огромная просьба, поблагодарите релизера, оцените раздачу и оставьте свои комментарий, если Вы скачали Забытые Богом через торрент бесплатно! Внесите свою лепту в развитие PiratBit!
    Комментировать посты могут только пользователи прошедшие не сложную регистрацию
    Показать сообщения:    

    Забытые Богом через торрент
    Скачать бесплатно Забытые Богом
    Забытые Богом скачать торрент
    Забытые Богом смотреть онлайн
    Cкачать фильм Забытые Богом бесплатно
    Забытые Богом скачать торрент в хорошем качестве
    Забытые Богом смотреть онлайн бесплатно в хорошем качестве


    Вы не можете начинать темы
    Вы не можете отвечать на сообщения
    Вы не можете редактировать свои сообщения
    Вы не можете удалять свои сообщения
    Вы не можете голосовать в опросах
    Вы не можете прикреплять файлы к сообщениям
    Вы можете скачивать файлы