новый адрес
Ссылка на приватное зеркало всего за 1$. Внимание количество ограничено!!!

iTunes

1+1

iTunes

мы

WEB-DL

1

iTunes

Чернобыль

iTunes

Ральф против интернета

Лицензия

ПШазам

Лицензия

Оно 2

Лицензия

30
pack

Вам бонус

ВАЖНО

!!Акция!!

Alien_RageХит недели

RePack

Resident Evil 21

ИГРА 18+

pack

RePack

jed

!!Акция!!

Alien_Rage

RePack

fifa19

RePack

Assassins Creed: Odyssey

RePack

NEED FOR SPEED™ PAYBACK

3 сезон

9 сезон

Бесстыжие 9 сезон

Все сериалы

все сериалы на PB.wtf

RePack

FAR CRY 5
Ребята, катастрофически не хватает 1900р. для оплаты серверов за Октябрь (всвязи с блокировками трафик упал в 3 раза), 1-2р., выручайте.
  

Человек с планеты Земля (Борис Бунеев) [1959, СССР, драма, биография, история, SATRip от AVP Studio] pb.wtf

Человек с планеты Земля через торрент pb.wtf

Размер: 1.09 GB | Добавлен: 2 года назад | Торрент скачан:23 раза
Скачать  

23-11-2017 09:42 Человек с планеты Земля Скачать торрент  

Человек с планеты Земля
Страна: СССР
Производство: Киностудия им. Горького

Жанр: драма, биография, история
Год выпуска: 1959
Продолжительность: 01:40:17

Перевод: Не требуется
Cубтитры: нет
Оригинальная аудиодорожка: русский

Режиссер: Борис Бунеев

В ролях:
Юрий (Георгий) Кольцов, Вера Дихтяр, Юрий Кротенко, Нина Меньшикова, Юрий Любимов, Владимир Балашов, Георгий Бударов, Юрий Медведев, Владимир Трошин...
Об актёрах подробней

Описание:
Биографическая киноповесть о первом русском исследователе космоса, ученом-изобретателе, ракетостроителе - К. Э. Циолковском.
19 век. В маленькую провинциальную Калугу сослан приват-доцент Петербургского университета Дорофеев. Он привозит школьному учителю Циолковскому (Юрий Кольцов) письмо от Менделеева и Столетова. Выдающиеся учёные России высказывают своё одобрение смелым проектам замечательного изобретателя. Но чиновники из Императорского Технического общества неизменно отклоняют эти проекты, как слишком фантастические. Увлечённость Циолковского наукой, его неприспособленность к повседневной реальности окружающими считается чудачеством.

Исходник: DVB
Качество видео: SATRip
Формат видео: AVI

Видео: 720х352 (2,045:1), 25 fps, XviD ~ 1354 kbps avg, 0.214 bit/pixel
Аудио: 48 kHz, Dolby Digital AC3 2.0, 192 kbps

Раздача от:
Общее
Полное имя : Chelovek.s.planety.Zemlya.1959.SATRip_[New-team]_by_AVP_Studio.avi
Формат : AVI
Формат/Информация : Audio Video Interleave
Размер файла : 1,09 Гбайт
Продолжительность : 1 ч. 40 м.
Общий поток : 1556 Кбит/сек
Программа кодирования : VirtualDubMod 1.5.10.3 | www.virtualdub-fr.org || (build 2550/release)
Библиотека кодирования : VirtualDubMod build 2550/release

Видео
Идентификатор : 0
Формат : MPEG-4 Visual
Профиль формата : Advanced Simple@L5
Параметр BVOP формата : 1
Параметр QPel формата : Нет
Параметр GMC формата : Без точки перехода
Параметр матрицы формата : Выборочная
Идентификатор кодека : XVID
Идентификатор кодека/Подсказка : XviD
Продолжительность : 1 ч. 40 м.
Битрейт : 1354 Кбит/сек
Ширина : 720 пикселей
Высота : 352 пикселя
Соотношение сторон : 2,045
Частота кадров : 25,000 кадров/сек
Цветовое пространство : YUV
Субдискретизация насыщенности : 4:2:0
Битовая глубина : 8 бит
Тип развёртки : Прогрессивная
Метод сжатия : С потерями
Бит/(Пиксели*Кадры) : 0.214
Размер потока : 971 Мбайт (87%)
Библиотека кодирования : XviD 73

Аудио
Идентификатор : 1
Формат : AC-3
Формат/Информация : Audio Coding 3
Параметр Endianness формата : Big
Идентификатор кодека : 2000
Продолжительность : 1 ч. 40 м.
Вид битрейта : Постоянный
Битрейт : 192 Кбит/сек
Каналы : 2 канала
Расположение каналов : Front: L R
Частота : 48,0 КГц
Частота кадров : 31,250 кадров/сек (1536 SPF)
Битовая глубина : 16 бит
Метод сжатия : С потерями
Размер потока : 138 Мбайт (12%)
Выравнивание : Разделение по промежуткам
Продолжительность промежутка : 40 мс. (1,00 видеокадр)
Время предзагрузки промежутка : 500 мс
pb.wtf



Скачать Человек с планеты Земля через торрент http://s019.radikal.ru/i617/1711/1f/32e3074e509a.png Скачать фильм Человек с планеты Земля через торрент бесплантно в хорошем качестве Описание:Биографическая киноповесть о первом русском исследователе космоса, ученом-изобретателе, ракетостроителе - К. Э. Циолковском.19 ... 10 10 1
Info! Золотая раздача, скачанное не засчитывается.
Торрент: Зарегистрирован [2017-11-23 09:42] · скачан: 23 раз
Статус: √ проверено
Размер: 1.09 GB
Как cкачать? Как скачать Человек с планеты Земля через торрент | qTorrent

% Раздел Тема Автор DL S | L
Кино СССР [ 1.09 GB ] Человек с планеты Земля [1959 СССР биография история SATRip-AVC от AVP Studio] AVP Studio Скачать
1 | 0

28-11-2019 20:33  

Отключить всю рекламу на сайте

23-11-2017 18:44 Человек с планеты Земля Скачать торрент  

Вообще-то, Циолковский - поляк.pb.wtf



    Дорогой пользователь! Огромная просьба, поблагодарите релизера, оцените раздачу и оставьте свои комментарий, если Вы скачали Человек с планеты Земля через торрент бесплатно! Внесите свою лепту в развитие PiratBit!
    Комментировать посты могут только пользователи прошедшие не сложную регистрацию
    Показать сообщения:    

    Человек с планеты Земля через торрент
    Скачать бесплатно Человек с планеты Земля
    Человек с планеты Земля скачать торрент
    Человек с планеты Земля смотреть онлайн
    Cкачать фильм Человек с планеты Земля бесплатно
    Человек с планеты Земля скачать торрент в хорошем качестве
    Человек с планеты Земля смотреть онлайн бесплатно в хорошем качестве


    Вы не можете начинать темы
    Вы не можете отвечать на сообщения
    Вы не можете редактировать свои сообщения
    Вы не можете удалять свои сообщения
    Вы не можете голосовать в опросах
    Вы не можете прикреплять файлы к сообщениям
    Вы можете скачивать файлы