1 сезон

1 сезон

iTunes

1

КиноПоиск HD

Кинопоиск HD

iTunes

13

1 сезон

RePack

30

Новинка

ВАЖНО

ИГРА 18+

pack

RePack

MK11
pack

Легкие деньги

RePack

jed

RePack

fifa19

RePack

RDR2

RePack

NEED FOR SPEED™ PAYBACK

4 сезон

9 сезон

Бесстыжие 9 сезон

Все сериалы

все сериалы на PB.wtf

RePack

FAR CRY 5
  
Magnet ссылка

Штат одинокой звезды / Lone Star State of Mind (Дэвид Семел) [2002 г, комедия, криминал, WEBRip] MVO pb.wtf

Штат одинокой звезды через торрент pb.wtf

Размер: 1.45 GB | Добавлен: 3 года 4 мес. назад | Торрент скачан:28 раз
Скачать  

23-11-2017 16:27 Штат одинокой звезды Скачать торрент  

Штат одинокой звезды / Lone Star State of Mind
Год выпуска: 2002
Страна: США
Жанр: комедия, криминал
Продолжительность: 01:28:01
Перевод: Профессиональный (многоголосый)

Режиссер: Дэвид Семел

rating

В ролях: Джошуа Джексон, Джейми Кинг, ДиДжей Куаллс, Мэттью Дэвис, Райан Херст, Джон Мелленкамп, Сэм МакМюррей, Томас Хейден Чёрч, Джулиан Дульсе Вида, Элизабет Барондес

Описание: Когда Господь создавал Техас, то он явно был не в ударе. По крайней мере, так считают влюбленные друг в друга Эрл и Бэби. Выросшие в самом обычном городишке этого штата они только и мечтают, как бы побыстрее слинять отсюда. И конечно в Калифорнию, в Лос-Анджелес, где можно попытать счастья стать богатыми и знаменитыми! Увы все эти грандиозные планы героев упираются в тупик имя которому — Джуниор, кузен Бэби. Этот чудак умеет влипать в неприятности как никто другой. И как никто другой — втягивать в свои проблемы других. Не успевают наши голубки и глазом моргнуть, как оказываются по уши увязшими в аферах Джуниора. И если в течение 48 часов им не удастся выпутаться из них и выпутать кузена, то Эрл и Бэби могут забыть о своих планах насчет Лос-Анджелеса…

Качество: WEBRip
Формат: AVI
Видео: XviD, 1829 Кбит/с, 720x304, 23.976 кадр/с
Аудио #1: MP3, 2 ch, 128 Кбит/с | Русский
Аудио #2: AC3, 6 ch, 384 Кбит/с | Английский
Релиз от: Koenig
скриншот   скриншот   скриншот   скриншот   скриншот   скриншот  

Общее
Полное имя : Lone.Star.State.of.Mind.2002.WEBRip.avi
Формат : AVI
Формат/Информация : Audio Video Interleave
Размер файла : 1,45 Гбайт
Продолжительность : 1 ч. 28 м.
Общий поток : 2355 Кбит/сек
Программа кодирования : VirtualDubMod 1.5.10.2 (build 2540/release)
Библиотека кодирования : VirtualDubMod build 2540/release

Видео
Идентификатор : 0
Формат : MPEG-4 Visual
Профиль формата : Advanced Simple@L5
Параметр BVOP формата : 1
Параметр QPel формата : Нет
Параметр GMC формата : Без точки перехода
Параметр матрицы формата : Выборочная
Идентификатор кодека : XVID
Идентификатор кодека/Подсказка : XviD
Продолжительность : 1 ч. 28 м.
Битрейт : 1829 Кбит/сек
Ширина : 720 пикселей
Высота : 304 пикселя
Соотношение сторон : 2,35:1
Частота кадров : 23,976 (24000/1001) кадра/сек
Цветовое пространство : YUV
Субдискретизация насыщенности : 4:2:0
Битовая глубина : 8 бит
Тип развёртки : Прогрессивная
Метод сжатия : С потерями
Бит/(Пиксели*Кадры) : 0.348
Размер потока : 1,12 Гбайт (78%)
Библиотека кодирования : XviD 65

Аудио #1
Идентификатор : 1
Формат : MPEG Audio
Версия формата : Version 1
Профиль формата : Layer 3
Идентификатор кодека : 55
Идентификатор кодека/Подсказка : MP3
Продолжительность : 1 ч. 28 м.
Вид битрейта : Постоянный
Битрейт : 128 Кбит/сек
Каналы : 2 канала
Частота : 48,0 КГц
Метод сжатия : С потерями
Размер потока : 80,6 Мбайт (5%)
Выравнивание : Соединение по промежуткам
Продолжительность промежутка : 42 мс. (1,00 видеокадр)
Время предзагрузки промежутка : 504 мс.
Библиотека кодирования : LAME3.98.2

Аудио #2
Идентификатор : 2
Формат : AC-3
Формат/Информация : Audio Coding 3
Параметр Endianness формата : Big
Идентификатор кодека : 2000
Продолжительность : 1 ч. 28 м.
Вид битрейта : Постоянный
Битрейт : 384 Кбит/сек
Каналы : 6 каналов
Расположение каналов : Front: L C R, Side: L R, LFE
Частота : 48,0 КГц
Частота кадров : 31,250 кадров/сек (1536 spf)
Битовая глубина : 16 бит
Метод сжатия : С потерями
Размер потока : 242 Мбайт (16%)
Выравнивание : Разделение по промежуткам
Продолжительность промежутка : 42 мс. (1,00 видеокадр)
Время предзагрузки промежутка : 500 мс.
ServiceKind/String : Complete Main

pb.wtf



Скачать Штат одинокой звезды через торрент https://pic1.kartinco.top/images/11/7uqtp.jpg Скачать фильм Штат одинокой звезды через торрент бесплантно в хорошем качестве Описание: Когда Господь создавал Техас, то он явно был не в ударе. По крайней мере, так считают влюбленные друг в друга Эрл и Бэби. ... 8 10 3
Info! Золотая раздача, скачанное не засчитывается.
Торрент: Зарегистрирован [2017-11-23 16:27] · скачан: 28 раз
Статус: √ проверено
Размер: 1.45 GB
Как cкачать? Как скачать Штат одинокой звезды через торрент | UTorrent

% Раздел Тема Автор DL S | L
Фильмы (WEB-DL 720p, 1080p) [ 6.61 GB ] Штат одинокой звезды / Lone Star State of Mind [2002 г WEBRip 1080p] MVO koenig Скачать
1 | 0
Фильмы 2001-2005 [ 679 MB ] Штат одинокой звезды / Lone Star State of Mind [2002 / DVDRip] MVO Ворон Скачать
1 | 0

28-11-2019 20:33  

Отключить всю рекламу на сайте

    Дорогой пользователь! Огромная просьба, поблагодарите релизера, оцените раздачу и оставьте свои комментарий, если Вы скачали Штат одинокой звезды через торрент бесплатно! Внесите свою лепту в развитие PiratBit!
    Комментировать посты могут только пользователи прошедшие не сложную регистрацию
    Показать сообщения:    

    Штат одинокой звезды через торрент
    Скачать бесплатно Штат одинокой звезды
    Штат одинокой звезды скачать торрент
    Штат одинокой звезды смотреть онлайн
    Cкачать фильм Штат одинокой звезды бесплатно
    Штат одинокой звезды скачать торрент в хорошем качестве
    Штат одинокой звезды смотреть онлайн бесплатно в хорошем качестве


    Вы не можете начинать темы
    Вы не можете отвечать на сообщения
    Вы не можете редактировать свои сообщения
    Вы не можете удалять свои сообщения
    Вы не можете голосовать в опросах
    Вы не можете прикреплять файлы к сообщениям
    Вы можете скачивать файлы