Ссылка на приватное зеркало нашего сайта всего за 1$. Внимание количество ограничено!!!

2 сезон

iTunes

1 сезон

1

2 сезон

2 сезон

iTunes

1 сезон

RePack

30

Новинка

ВАЖНО

ИГРА 18+

pack

RePack

MK11
pack

Забери бонус

RePack

jed

!!Акция!!

Alien_Rage

RePack

fifa19

RePack

Assassins Creed: Odyssey

RePack

NEED FOR SPEED™ PAYBACK

4 сезон

9 сезон

Бесстыжие 9 сезон

Все сериалы

все сериалы на PB.wtf

RePack

FAR CRY 5
  

Заточенные кепки / Острые козырьки / Peaky Blinders / Сезон: 4 / Серии: 1-6 из 6 [2017, драма, криминал, HDTVRip 1080p] [Sub] (Rus) pb.wtf

Заточенные кепки через торрент pb.wtf

Размер: 10.57 GB | Добавлен: 2 года 10 мес. назад | Торрент скачан:27 раз
Скачать  

23-11-2017 22:47 Заточенные кепки Скачать торрент  

Заточенные кепки /Острые козырьки / Peaky Blinders
Год выпуска: 2017
Страна: Великобритания
Жанр: драма, криминал
Продолжительность: 1x ~00:59:00
Перевод: Русские субтитры *by Outbreak*
Оригинальная дорожка: английский

Режиссер: Отто Баферст / Otto Bathurst, Том Харпер / Tom Harper

В ролях: Киллиан Мерфи, Пол Андерсон, Иддо Голдберг, Хелен МакКрори, Сэм Нилл, Аннабелль Уоллис, Джо Коул, Элфи Эванс-Мис, Джек Хартли, Кевин Меткалф Британский сериал о криминальном мире Бирмингема 20-х годов прошлого века, в котором многолюдная семья Шелби стала одной из самых жестоких и влиятельных гангстерских банд послевоенного времени. Фирменным знаком группировки, промышлявшей грабежами и азартными играми, стали зашитые в козырьки лезвия.



Качество: HDTVRip 1080p
Формат: MKV
Видео кодек: AVC
Аудио кодек: AC3
Видео: 1920x1080, 25 fps, MPEG-4 AVC ~2902 kbps avg
Аудио: 48 kHz, AC3 2.0, ~192 kbps avg
General
Unique ID : 0 (0x0)
Complete name : E:\Peaky Blinders Season 4\peaky.blinders.s04e01.1080p.hdtv.h264-mtb.mkv
Format : Matroska
Format version : Version 4 / Version 2
File size : 1.27 GiB
Duration : 57 min 46 s
Overall bit rate : 3 157 kb/s
Encoded date : UTC 2010-02-22 21:41:29
Writing application : no_variable_data
Writing library : no_variable_data

Video
ID : 1
Format : AVC
Format/Info : Advanced Video Codec
Format profile : High@L4
Format settings : CABAC / 4 Ref Frames
Format settings, CABAC : Yes
Format settings, RefFrames : 4 frames
Codec ID : V_MPEG4/ISO/AVC
Duration : 57 min 46 s
Bit rate : 2 902 kb/s
Width : 1 920 pixels
Height : 1 080 pixels
Display aspect ratio : 16:9
Frame rate mode : Constant
Frame rate : 25.000 FPS
Standard : Component
Color space : YUV
Chroma subsampling : 4:2:0
Bit depth : 8 bits
Scan type : MBAFF
Scan type, store method : Interleaved fields
Scan order : Top Field First
Bits/(Pixel*Frame) : 0.056
Stream size : 1.17 GiB (92%)
Language : English
Default : Yes
Forced : No
Color range : Limited
Color primaries : BT.709
Transfer characteristics : BT.709
Matrix coefficients : BT.709

Audio
ID : 2
Format : AC-3
Format/Info : Audio Coding 3
Format settings, Endianness : Big
Codec ID : A_AC3
Duration : 57 min 46 s
Bit rate mode : Constant
Bit rate : 192 kb/s
Channel(s) : 2 channels
Channel positions : Front: L R
Sampling rate : 48.0 kHz
Frame rate : 31.250 FPS (1536 SPF)
Bit depth : 16 bits
Compression mode : Lossy
Stream size : 79.3 MiB (6%)
Language : English
Service kind : Complete Main
Default : Yes
Forced : No
Внимание! Раздача ведётся путём добавления новых серий; при каждом добавлении создаётся новый торрент. Чтобы начать докачку новой серии, пользователям необходимо сделать следующее:
(1) остановить скачивание,
(2) удалить старый торрент у себя из клиента (старые серии удалять не надо),
(3) скачать новый торрент и запустить его у себя в клиенте вместо старого, при этом указать клиенту путь в старую папку куда и должно происходить скачивание новых серий.
Ваш клиент при этом должен произвести хеширование (проверку) старой папки (если не производит сам - помогите ему сделать это), и будет докачивать только те серии которых у вас ещё нет. Старые серии при этом не удаляются, а продолжают раздаваться!
Eсли вы уже удалили старые серии, то предотвратить повторную закачку старых серий можно, отжав галочку в соответствующих местах при запуске нового торрента. По возможности, желательно не удалять старые серии как можно дольше чтобы релизёр не столько продолжал раздавать старые серии, а смог сконцентрироваться на новых.
скриншот  скриншот  скриншот  
pb.wtf



Скачать Заточенные кепки через торрент http://i97.fastpic.ru/big/2017/1124/8b/64c4920c1a12d4aea20c55bb2e252a8b.jpg Скачать фильм Заточенные кепки через торрент бесплантно в хорошем качестве В ролях: Киллиан Мерфи, Пол Андерсон, Иддо Голдберг, Хелен МакКрори, Сэм Нилл, Аннабелль Уоллис, Джо Коул, Элфи Эванс-Мис, Джек Хартли, ... 8.3 10 6
Info! Серебряная раздача, засчитывается только 50% скачанного.
Торрент: Зарегистрирован [2017-12-26 16:14] · скачан: 27 раз
Статус: √ проверено
Размер: 10.57 GB
Как cкачать? Как скачать Заточенные кепки через торрент | qTorrent

% Раздел Тема Автор DL S | L
Зарубежные сериалы [ 25 GB ] Заточенные кепки / Острые козырьки / Peaky Blinders / Сезон: 4 / Серии: 1-6 из 6 [2017 BDRip 1080p] MVO [LostFilm] bober100 Скачать
1 | 0
Зарубежные сериалы [ 9.83 GB ] Заточенные кепки / Острые козырьки / Peaky Blinders / Сезон: 4 / Серии: 1-6 из 6 [2017 WEB-DLRip 1080p] [MVO] killermax2013 Скачать
1 | 0
Зарубежные сериалы [ 3.67 GB ] Заточенные кепки / Острые козырьки / Peaky Blinders / Сезон: 4 / Серии: 1-6 из 6 [2017 HDTVRip-AVC] многоголосый [AlexFilm] R.G.Generalfilm White Smoke Скачать
1 | 0
Зарубежные сериалы [ 7.72 GB ] Заточенные кепки / Острые козырьки / Peaky Blinders / Сезон: 4 / Серии: 1-6 из 6 [2017 HDTVRip 720p][MVO] nn99nn Скачать
1 | 0
Зарубежные сериалы [ 5.93 GB ] Заточенные кепки / Острые козырьки / Peaky Blinders / Сезон:4 / Серии: 1-6 из 6 [2017 WEBRip 720p] [DVO] killermax2013 Скачать
1 | 0
Зарубежные сериалы [ 5.91 GB ] Заточенные кепки /Острые козырьки / Peaky Blinders / Сезон 4 / Серии 1-6 из 6 [2017 WEBRip 720p] MVO [Jaskier] bober100 Скачать
1 | 0
Зарубежные сериалы [ 12.37 GB ] Заточенные кепки /Острые козырьки / Peaky Blinders / Сезон 4 / Серии 1-6 из 6 [2017 WEB-DL 1080p] MVO [Jaskier] bober100 Скачать
1 | 0


Последний раз редактировалось: killermax2013 (2017-12-26 16:13), всего редактировалось 1 раз

28-11-2019 20:33  

Отключить всю рекламу на сайте

24-11-2017 02:42 Заточенные кепки Скачать торрент  

Прикольный фильм pb.wtf



    Дорогой пользователь! Огромная просьба, поблагодарите релизера, оцените раздачу и оставьте свои комментарий, если Вы скачали Заточенные кепки через торрент бесплатно! Внесите свою лепту в развитие PiratBit!
    Комментировать посты могут только пользователи прошедшие не сложную регистрацию
    Показать сообщения:    

    Заточенные кепки через торрент
    Скачать бесплатно Заточенные кепки
    Заточенные кепки скачать торрент
    Заточенные кепки смотреть онлайн
    Cкачать фильм Заточенные кепки бесплатно
    Заточенные кепки скачать торрент в хорошем качестве
    Заточенные кепки смотреть онлайн бесплатно в хорошем качестве


    Вы не можете начинать темы
    Вы не можете отвечать на сообщения
    Вы не можете редактировать свои сообщения
    Вы не можете удалять свои сообщения
    Вы не можете голосовать в опросах
    Вы не можете прикреплять файлы к сообщениям
    Вы можете скачивать файлы