2 сезон

iTunes

MVO

1

2 сезон

iTunes

iTunes

1 сезон

RePack

30

Новинка

ВАЖНО

ИГРА 18+

pack

RePack

MK11
pack

Легкие деньги

RePack

jed

RePack

fifa19

RePack

RDR2

RePack

NEED FOR SPEED™ PAYBACK

4 сезон

9 сезон

Бесстыжие 9 сезон

Все сериалы

все сериалы на PB.wtf

RePack

FAR CRY 5

Anonymous, доброй ночи, мы не успеваем собрать деньги на оплату серверов за декабрь и январь, помогите нам пожалуйста в это трудное время. В качестве благодарности мы отключим Вам всю рекламу на сайте (укажите свой ник в строку Ваше имя)!

×
  
Magnet ссылка

Роковое искушение / The Beguiled (София Коппола) [2017, драма, BDRip-AVC] DUB [Лицензия] pb.wtf

Роковое искушение через торрент pb.wtf

Качают: 1 [ 0 KB/s ]
Размер: 1.63 GB | Добавлен: 3 года 2 мес. назад | Торрент скачан:274 раза
Скачать  

24-11-2017 04:41 Роковое искушение Скачать торрент  

Роковое искушение / The BeguiledГод выпуска: 2017
Страна: США
Жанр: драма
Продолжительность: 01:34:46
Перевод: Дубляж Лицензия
Субтитры: Русские, английские

Режиссер: София Коппола

rating

В ролях:

Колин Фаррелл, Николь Кидман, Кирстен Данст, Элль Фэннинг, Уна Лоуренс, Энгаури Райс, Эддисон Рики, Эмма Ховард, Уэйн Пер, Мэтт Стори

Описание:

Раненый янки Джон МакБарней (Колин Фаррелл), капрал армии северян, был спасен от смерти юной конфедераткой из южной школы-интерната. Женский коллектив ухаживает за ним и делает все для его лечения. Вскоре Джон начинает поправляться и понимает, в какое благодатное место его привела судьба. Одна за другой девушки оказываются очарованы обаятельным выздоравливающим. Постепенно атмосфера в школе накаляется — каждая мечтает завоевать расположение красавца-мужчины. Вскоре ревность, обман и обиды приходят на смену душевной близости и сердечности.

Качество: BDRip-AVC
Формат: MKV
Видео кодек: H.264
Аудио кодек: AC3

Видео: 1024x616 (5:3), 23.976 fps, x264 ~1602 kbps avg, 0.106 bit/pixel
Аудио#1: 48 kHz, AC3 Dolby Digital, 3/2 (L,C,R,l,r) + LFE ch, ~448.00 kbps avg | RUS (Лицензия)
Аудио#2: 48 kHz, AC3 Dolby Digital, 3/2 (L,C,R,l,r) + LFE ch, ~448.00 kbps avg | ENG
скриншот   скриншот   скриншот   скриншот  

Общее
Уникальный идентификатор : 204665535912477949287914402776873548592 (0x99F925FED6E131A8B440C06B4669BB30)
Полное имя : E:OlLanDGroupThe.Beguiled.2017.BDRip(AVC).OlLanDGroup.mkv
Формат : Matroska
Версия формата : Version 2
Размер файла : 1,63 Гбайт
Продолжительность : 1 ч. 33 м.
Общий поток : 2501 Кбит/сек
Название фильма : The.Beguiled.2017 #TorpedoUK#
Дата кодирования : UTC 2017-11-24 02:37:13
Программа кодирования : mkvmerge v7.8.0 ('River Man') 32bit built on Apr 3 2015 12:11:22
Библиотека кодирования : libebml v1.3.1 + libmatroska v1.4.2

Видео
Идентификатор : 1
Формат : AVC
Формат/Информация : Advanced Video Codec
Профиль формата : High@L4.1
Параметр CABAC формата : Да
Параметр ReFrames формата : 10 кадров
Идентификатор кодека : V_MPEG4/ISO/AVC
Продолжительность : 1 ч. 33 м.
Битрейт : 1602 Кбит/сек
Ширина : 1024 пикселя
Высота : 616 пикселей
Соотношение сторон : 5:3
Режим частоты кадров : Постоянный
Частота кадров : 23,976 (24000/1001) кадра/сек
Цветовое пространство : YUV
Субдискретизация насыщенности : 4:2:0
Битовая глубина : 8 бит
Тип развёртки : Прогрессивная
Бит/(Пиксели*Кадры) : 0.106
Размер потока : 1,02 Гбайт (62%)
Библиотека кодирования : x264 core 146 r2538 121396c
Настройки программы : cabac=1 / ref=10 / deblock=1:-3:-3 / analyse=0x3:0x133 / me=umh / subme=11 / psy=1 / psy_rd=1.00:0.03 / mixed_ref=1 / me_range=48 / chroma_me=1 / trellis=2 / 8x8dct=1 / cqm=0 / deadzone=21,11 / fast_pskip=1 / chroma_qp_offset=-3 / threads=6 / lookahead_threads=1 / sliced_threads=0 / nr=0 / decimate=1 / interlaced=0 / bluray_compat=0 / constrained_intra=0 / bframes=10 / b_pyramid=2 / b_adapt=2 / b_bias=0 / direct=3 / weightb=1 / open_gop=0 / weightp=2 / keyint=240 / keyint_min=23 / scenecut=40 / intra_refresh=0 / rc_lookahead=40 / rc=2pass / mbtree=0 / bitrate=1602 / ratetol=1.0 / qcomp=0.60 / qpmin=0 / qpmax=69 / qpstep=4 / cplxblur=20.0 / qblur=0.5 / vbv_maxrate=50000 / vbv_bufsize=62500 / nal_hrd=none / filler=0 / ip_ratio=1.40 / pb_ratio=1.30 / aq=1:1.00
Язык : English
Default : Да
Forced : Нет

Аудио #1
Идентификатор : 2
Формат : AC-3
Формат/Информация : Audio Coding 3
Расширение режима : CM (complete main)
Параметр Endianness формата : Big
Идентификатор кодека : A_AC3
Продолжительность : 1 ч. 33 м.
Вид битрейта : Постоянный
Битрейт : 448 Кбит/сек
Каналы : 6 каналов
Расположение каналов : Front: L C R, Side: L R, LFE
Частота : 48,0 КГц
Частота кадров : 31,250 кадров/сек (1536 spf)
Битовая глубина : 16 бит
Метод сжатия : С потерями
Размер потока : 300 Мбайт (18%)
Заголовок : License
Язык : Russian
Default : Да
Forced : Нет

Аудио #2
Идентификатор : 3
Формат : AC-3
Формат/Информация : Audio Coding 3
Расширение режима : CM (complete main)
Параметр Endianness формата : Big
Идентификатор кодека : A_AC3
Продолжительность : 1 ч. 33 м.
Вид битрейта : Постоянный
Битрейт : 448 Кбит/сек
Каналы : 6 каналов
Расположение каналов : Front: L C R, Side: L R, LFE
Частота : 48,0 КГц
Частота кадров : 31,250 кадров/сек (1536 spf)
Битовая глубина : 16 бит
Метод сжатия : С потерями
Размер потока : 300 Мбайт (18%)
Заголовок : Original
Язык : English
Default : Нет
Forced : Нет

Текст #1
Идентификатор : 4
Формат : UTF-8
Идентификатор кодека : S_TEXT/UTF8
Идентификатор кодека/Информация : UTF-8 Plain Text
Заголовок : Forced
Язык : Russian
Default : Да
Forced : Нет

Текст #2
Идентификатор : 5
Формат : UTF-8
Идентификатор кодека : S_TEXT/UTF8
Идентификатор кодека/Информация : UTF-8 Plain Text
Заголовок : Full
Язык : Russian
Default : Нет
Forced : Нет

Текст #3
Идентификатор : 6
Формат : UTF-8
Идентификатор кодека : S_TEXT/UTF8
Идентификатор кодека/Информация : UTF-8 Plain Text
Заголовок : SDH
Язык : English
Default : Нет
Forced : Нет

Меню
00:00:00.000 : en:00:00:00.000
00:06:13.665 : en:00:06:13.665
00:09:47.462 : en:00:09:47.462
00:14:00.006 : en:00:14:00.006
00:18:26.272 : en:00:18:26.272
00:25:16.223 : en:00:25:16.223
00:31:24.674 : en:00:31:24.674
00:34:44.749 : en:00:34:44.749
00:42:09.485 : en:00:42:09.485
00:44:44.974 : en:00:44:44.974
00:49:02.189 : en:00:49:02.189
00:55:11.391 : en:00:55:11.391
01:01:14.796 : en:01:01:14.796
01:05:00.980 : en:01:05:00.980
01:11:28.868 : en:01:11:28.868
01:13:54.513 : en:01:13:54.513
01:16:50.689 : en:01:16:50.689
01:21:57.496 : en:01:21:57.496
01:26:30.310 : en:01:26:30.310
01:29:46.756 : en:01:29:46.756
pb.wtf



Скачать Роковое искушение через торрент http://lostpix.com/img/2017-11/24/bj8dy2pekhbnbahkn81wkb9xm.jpg Скачать фильм Роковое искушение через торрент бесплантно в хорошем качестве Описание: Раненый янки Джон МакБарней (Колин Фаррелл), капрал армии северян, был спасен от смерти юной конфедераткой из южной ... 8.7 10 9
Торрент: Зарегистрирован [2017-11-24 04:41] · скачан: 274 раз
Статус: √ проверено
Размер: 1.63 GB
Как cкачать? Как скачать Роковое искушение через торрент | UTorrent

% Раздел Тема Автор DL S | L
Фильмы [HD 720p, 1080p] (Хороший звук DUB, MVO) [ 3.48 GB ] Роковое искушение / The Beguiled [2017 BDRip 720p] [] killermax2013 Скачать
1 | 0
Фильмы 2017 [DVDrip, WEB-DLRip, HDrip] (DUB, MVO) [ 1.46 GB ] Роковое искушение / The Beguiled [2017 BDRip] - [] Twi7ter Скачать
1 | 0
Видео для КПК и Смартфонов [ 354 MB ] Роковое искушение / The Beguiled [2017 HDRip КПК] DUB [] bober100 Скачать
1 | 0
Фильмы (Blu-ray, BD-Remux, HDDVD) [ 23.72 GB ] Роковое искушение / The Beguiled [2017 BD Remux 1080p] DUB [ EUR] bober100 Скачать
1 | 0
Фильмы 2017 [DVDrip, WEB-DLRip, HDrip] (DUB, MVO) [ 1.53 GB ] Роковое искушение / The Beguiled [2017 BDRip-AVC] DUB [] - ExKinoRay Enigma2010 Скачать
1 | 0
Фильмы 2017 [DVDrip, WEB-DLRip, HDrip] (DUB, MVO) [ 1.37 GB ] Роковое искушение / The Beguiled [2017 HDRip] DUB [] bober100 Скачать
1 | 0

28-11-2019 20:33  

Отключить всю рекламу на сайте


    Дорогой пользователь! Огромная просьба, поблагодарите релизера, оцените раздачу и оставьте свои комментарий, если Вы скачали Роковое искушение через торрент бесплатно! Внесите свою лепту в развитие PiratBit!
    Комментировать посты могут только пользователи прошедшие не сложную регистрацию
    Показать сообщения:    

    Роковое искушение через торрент
    Скачать бесплатно Роковое искушение
    Роковое искушение скачать торрент
    Роковое искушение смотреть онлайн
    Cкачать фильм Роковое искушение бесплатно
    Роковое искушение скачать торрент в хорошем качестве
    Роковое искушение смотреть онлайн бесплатно в хорошем качестве


    Вы не можете начинать темы
    Вы не можете отвечать на сообщения
    Вы не можете редактировать свои сообщения
    Вы не можете удалять свои сообщения
    Вы не можете голосовать в опросах
    Вы не можете прикреплять файлы к сообщениям
    Вы можете скачивать файлы