новый адрес
Ссылка на приватное зеркало всего за 1$. Внимание количество ограничено!!!

iTunes

1+1

iTunes

мы

iTunes

1

iTunes

Чернобыль

iTunes

Ральф против интернета

Лицензия

ПШазам

Лицензия

Оно 2

Лицензия

30
pack

Вам бонус

ВАЖНО

!!Акция!!

Alien_RageХит недели

RePack

Resident Evil 21

ИГРА 18+

pack

RePack

jed

!!Акция!!

Alien_Rage

RePack

fifa19

RePack

Assassins Creed: Odyssey

RePack

NEED FOR SPEED™ PAYBACK

3 сезон

9 сезон

Бесстыжие 9 сезон

Все сериалы

все сериалы на PB.wtf

RePack

FAR CRY 5
Ребята, катастрофически не хватает 1900р. для оплаты серверов за Октябрь (всвязи с блокировками трафик упал в 3 раза), 1-2р., выручайте.
  

Солнце светит всем (Константин Воинов) [1959, СССР, драма, мелодрама, SATRip от AVP Studio] pb.wtf

Солнце светит всем через торрент pb.wtf

Размер: 746 MB | Добавлен: 1 год 11 мес. назад | Торрент скачан:20 раз
Скачать  

24-11-2017 10:11 Солнце светит всем Скачать торрент  

Солнце светит всем
Страна: СССР
Производство: Мосфильм

Жанр: драма, мелодрама
Год выпуска: 1959
Продолжительность: 01:27:08

Перевод: Не требуется
Cубтитры: нет
Оригинальная аудиодорожка: русский

Режиссер: Константин Воинов

В ролях:
Валентин Зубков, Лилиана Алешникова, Татьяна Конюхова, Евгений Буренков, Николай Сергеев, Елена Максимова, Виктор Кольцов (Кутаков), Ольга Наровчатова, Виктор Лобзов ...
Об актёрах подробней

Описание:
Чехословакия, 9 мая 1945 года. Уже объявили об окончании войны. Николай Савельев (Валентин Зубков) мечтает о том, как он вернётся в родной город и снова будет преподавать детям историю. Внезапно начинается бой - эсесовская часть пытается прорваться на запад. Командир батареи Корень (Евгений Буренков) струсил и бежал. Командвание принимает на себя Савельев. Он получает тяжелое ранение, которое приводит к слепоте. До родного города его сопровождает медсестра Светлана (Лилиана Алёшникова). Не сразу удаётся Николаю найти своё место в жизни...

Исходник: DVB
Качество видео: SATRip
Формат видео: AVI

Видео: 640х480 (4:3), 25 fps, XviD ~ 1059 kbps avg, 0.138 bit/pixel
Аудио: 48 kHz, MP3 2.0, 128 kbps

Раздача от:
Общее
Полное имя : Solnce.svetit.vsem.1959.SATRip-745_[New-team]_by_AVP_Studio.avi
Формат : AVI
Формат/Информация : Audio Video Interleave
Размер файла : 746 Мбайт
Продолжительность : 1 ч. 27 м.
Общий поток : 1197 Кбит/сек
Программа кодирования : VirtualDubMod 1.5.10.3 | www.virtualdub-fr.org || (build 2550/release)
Библиотека кодирования : VirtualDubMod build 2550/release

Видео
Идентификатор : 0
Формат : MPEG-4 Visual
Профиль формата : Advanced Simple@L5
Параметр BVOP формата : 1
Параметр QPel формата : Нет
Параметр GMC формата : Без точки перехода
Параметр матрицы формата : Выборочная
Идентификатор кодека : XVID
Идентификатор кодека/Подсказка : XviD
Продолжительность : 1 ч. 27 м.
Битрейт : 1059 Кбит/сек
Ширина : 640 пикселей
Высота : 480 пикселей
Соотношение сторон : 4:3
Частота кадров : 25,000 кадров/сек
Цветовое пространство : YUV
Субдискретизация насыщенности : 4:2:0
Битовая глубина : 8 бит
Тип развёртки : Прогрессивная
Метод сжатия : С потерями
Бит/(Пиксели*Кадры) : 0.138
Размер потока : 660 Мбайт (88%)
Библиотека кодирования : XviD 73

Аудио
Идентификатор : 1
Формат : MPEG Audio
Версия формата : Version 1
Профиль формата : Layer 3
Идентификатор кодека : 55
Идентификатор кодека/Подсказка : MP3
Продолжительность : 1 ч. 27 м.
Вид битрейта : Постоянный
Битрейт : 128 Кбит/сек
Каналы : 2 канала
Частота : 48,0 КГц
Метод сжатия : С потерями
Размер потока : 79,8 Мбайт (11%)
Выравнивание : Соединение по промежуткам
Продолжительность промежутка : 40 мс. (1,00 видеокадр)
Время предзагрузки промежутка : 504 мс.
Библиотека кодирования : LAME3.99r
Настройки программы : -m s -V 4 -q 2 -lowpass 17 -b 128
pb.wtf



Скачать Солнце светит всем через торрент http://s011.radikal.ru/i318/1711/6a/fc1256c2d76b.png Скачать фильм Солнце светит всем через торрент бесплантно в хорошем качестве Описание:Чехословакия, 9 мая 1945 года. Уже объявили об окончании войны. Николай Савельев (Валентин Зубков) мечтает о том, как он вернётся ... 5 10 1
Info! Золотая раздача, скачанное не засчитывается.
Торрент: Зарегистрирован [2017-11-24 10:11] · скачан: 20 раз
Статус: √ проверено
Размер: 746 MB
Как cкачать? Как скачать Солнце светит всем через торрент | qTorrent

% Раздел Тема Автор DL S | L
Кино СССР [ 1.09 GB ] Солнце светит всем [1959 СССР SATRip-AVC от AVP Studio] AVP Studio Скачать
1 | 0
Кино СССР [ 1.09 GB ] Солнце светит всем [1959 СССР SATRip от AVP Studio] AVP Studio Скачать
1 | 0


>> Переходим по ссылке <<
Автоматически подгузится скрипт который настроит ваш браузер на выигрыш!!
После настройки браузера вероятность выигрыша увеличется в 4.1-4,6 раза.
В течение 6 секунд вам откроется настроенный интерфейс казино, с повышенной вероятностью выигрыша.






Отзывы и комментарии о схеме читаем и пишем здесь: ---> Отзывы и комментарии о схеме

Новые благодарочки в телеграм довольных пользователей:
скриншот   скриншот   скриншот   скриншот   скриншот
    Дорогой пользователь! Огромная просьба, поблагодарите релизера, оцените раздачу и оставьте свои комментарий, если Вы скачали Солнце светит всем через торрент бесплатно! Внесите свою лепту в развитие PiratBit!
    Комментировать посты могут только пользователи прошедшие не сложную регистрацию
    Показать сообщения:    

    Солнце светит всем через торрент
    Скачать бесплатно Солнце светит всем
    Солнце светит всем скачать торрент
    Солнце светит всем смотреть онлайн
    Cкачать фильм Солнце светит всем бесплатно
    Солнце светит всем скачать торрент в хорошем качестве
    Солнце светит всем смотреть онлайн бесплатно в хорошем качестве


    Вы не можете начинать темы
    Вы не можете отвечать на сообщения
    Вы не можете редактировать свои сообщения
    Вы не можете удалять свои сообщения
    Вы не можете голосовать в опросах
    Вы не можете прикреплять файлы к сообщениям
    Вы можете скачивать файлы