Ссылка на приватное зеркало нашего сайта всего за 1$. Внимание количество ограничено!!!

2 сезон

iTunes

1 сезон

1

iTunes

iTunes

iTunes

1 сезон

RePack

30

ИГРА 18+

pack

ВАЖНО

!!Акция!!

Alien_RageХит недели

RePack

MK11
pack

Забери бонус

RePack

jed

!!Акция!!

Alien_Rage

RePack

fifa19

RePack

Assassins Creed: Odyssey

RePack

NEED FOR SPEED™ PAYBACK

4 сезон

9 сезон

Бесстыжие 9 сезон

Все сериалы

все сериалы на PB.wtf

RePack

FAR CRY 5
  

Стреляйте в пианиста / Tirez sur le pianiste (Франсуа Трюффо ) [1960, триллер, драма, криминал, BDRip 720p от _denis_100 | NNNB] 2xMVO + Original + Sub (Rus,Eng,Fre) pb.wtf

Стреляйте в пианиста через торрент pb.wtf

Размер: 6.33 GB | Добавлен: 2 года 11 мес. назад | Торрент скачан:37 раз
Скачать  

25-11-2017 10:26 Стреляйте в пианиста Скачать торрент  

Стреляйте в пианиста / Tirez sur le pianiste
«Francois Truffaut, Brilliant Director Who Gave You the Award Winning 'The 400 Blows', Now Brings to the Screen a Fascinating New Work That Plays in Many Keys...All of Them Delightful!»


Год выпуска: 1960
Страна: Франция
Жанр: триллер, драма, криминал, фильм-нуар
Продолжительность: 01:21:17
Перевод: Профессиональный многоголосый
Субтитры: русские (R5), английские, французский
Режиссер: Франсуа Трюффо
В ролях: Шарль Азнавур , Мари Дюбуа , Николь Берже , Мишель Мерсье , Серж Даври , Клод Мансар , Ришар Канаян , Альбер Реми , Жан-Жак Асланян , Даниэль Буланже , Клод Эйманн , Алекс Жоффе
Описание:
Пытаясь забыть о трагедии, произошедшей с его женой, некогда известный пианист Эдвард Сароян работает в баре под именем Шарли Колера. Но его попытки скрыться от жизни безуспешны: Шарли влюбляется в официантку Лену. Комично робея при виде Лены, Шарли между тем с легкостью заводит интригу со своей соседкой - проституткой Клариссой.

Качество: BDRip 720p
Контейнер (Расширение): MKV
Видео: 1280x548, 10564 Кбит/сек, 24 кадр/сек, 0,628 Бит/[Пиксели*Кадры]
Аудио №1: русский / AC3 / 2.0 / 48 kHz / 192 kbps / |Профессиональный многоголосый, Кармен Видео|
Аудио №2: русский / AC3 / 2.0 / 48 kHz / 192 kbps / |Профессиональный многоголосый, SomeWax|
Аудио №3: французский / AC3 / 2.0 / 48 kHz / 192 kbps /
Навигация по главам(Чаптеры): естьАвтор рипа: Группа:
Format : Matroska
Format version : Version 2
File size : 6.33 GiB
Duration : 1 h 21 min
Overall bit rate : 11.1 Mb/s
Movie name : Tirez sur le pianiste.(1960).BDRip.720p.[denis100]
Encoded date : UTC 2017-11-25 08:46:29
Writing application : mkvmerge v5.8.0 ('No Sleep / Pillow') built on Sep 2 2012 15:37:04
Writing library : libebml v1.2.3 + libmatroska v1.3.0

Video
ID : 1
Format : AVC
Format/Info : Advanced Video Codec
Format profile : High@L4.1
Format settings, CABAC : Yes
Format settings, ReFrames : 11 frames
Codec ID : V_MPEG4/ISO/AVC
Duration : 1 h 21 min
Bit rate : 10.6 Mb/s
Width : 1 280 pixels
Height : 548 pixels
Display aspect ratio : 2.35:1
Frame rate mode : Constant
Frame rate : 24.000 FPS
Color space : YUV
Chroma subsampling : 4:2:0
Bit depth : 8 bits
Scan type : Progressive
Bits/(Pixel*Frame) : 0.628
Stream size : 5.87 GiB (93%)
Title : Tirez sur le pianiste.(1960).BDRip.720p.[denis100]
Writing library : x264 core 152 r2851 ba24899
Encoding settings : cabac=1 / ref=11 / deblock=1:-3:-3 / analyse=0x3:0x113 / me=umh / subme=11 / psy=1 / psy_rd=1.00:0.10 / mixed_ref=1 / me_range=32 / chroma_me=1 / trellis=2 / 8x8dct=1 / cqm=0 / deadzone=21,11 / fast_pskip=0 / chroma_qp_offset=-3 / threads=6 / lookahead_threads=1 / sliced_threads=0 / nr=0 / decimate=1 / interlaced=0 / bluray_compat=0 / constrained_intra=0 / bframes=9 / b_pyramid=2 / b_adapt=2 / b_bias=0 / direct=3 / weightb=1 / open_gop=0 / weightp=2 / keyint=240 / keyint_min=24 / scenecut=40 / intra_refresh=0 / rc=2pass / mbtree=0 / bitrate=10564 / ratetol=1.0 / qcomp=0.60 / qpmin=0 / qpmax=69 / qpstep=4 / cplxblur=20.0 / qblur=0.5 / ip_ratio=1.40 / pb_ratio=1.30 / aq=1:0.75
Language : English
Default : Yes
Forced : No

Audio #1
ID : 2
Format : AC-3
Format/Info : Audio Coding 3
Mode extension : CM (complete main)
Format settings, Endianness : Big
Codec ID : A_AC3
Duration : 1 h 21 min
Bit rate mode : Constant
Bit rate : 192 kb/s
Channel(s) : 2 channels
Channel positions : Front: L R
Sampling rate : 48.0 kHz
Frame rate : 31.250 FPS (1536 spf)
Compression mode : Lossy
Stream size : 112 MiB (2%)
Title : MVO, Кармен Видео
Language : Russian
Default : Yes
Forced : No

Audio #2
ID : 3
Format : AC-3
Format/Info : Audio Coding 3
Mode extension : CM (complete main)
Format settings, Endianness : Big
Codec ID : A_AC3
Duration : 1 h 21 min
Bit rate mode : Constant
Bit rate : 192 kb/s
Channel(s) : 2 channels
Channel positions : Front: L R
Sampling rate : 48.0 kHz
Frame rate : 31.250 FPS (1536 spf)
Compression mode : Lossy
Stream size : 112 MiB (2%)
Title : MVO, SomeWax
Language : Russian
Default : No
Forced : No

Audio #3
ID : 4
Format : AC-3
Format/Info : Audio Coding 3
Mode extension : CM (complete main)
Format settings, Endianness : Big
Codec ID : A_AC3
Duration : 1 h 21 min
Bit rate mode : Constant
Bit rate : 192 kb/s
Channel(s) : 2 channels
Channel positions : Front: L R
Sampling rate : 48.0 kHz
Frame rate : 31.250 FPS (1536 spf)
Compression mode : Lossy
Stream size : 112 MiB (2%)
Language : French
Default : No
Forced : No

Text #1
ID : 5
Format : UTF-8
Codec ID : S_TEXT/UTF8
Codec ID/Info : UTF-8 Plain Text
Title : R5
Language : Russian
Default : No
Forced : No

Text #2
ID : 6
Format : UTF-8
Codec ID : S_TEXT/UTF8
Codec ID/Info : UTF-8 Plain Text
Language : English
Default : No
Forced : No

Text #3
ID : 7
Format : UTF-8
Codec ID : S_TEXT/UTF8
Codec ID/Info : UTF-8 Plain Text
Language : French
Default : No
Forced : No

Menu
00:00:00.000 : en:Chapter 01
00:06:33.250 : en:Chapter 02
00:12:32.208 : en:Chapter 03
00:17:10.375 : en:Chapter 04
00:22:52.833 : en:Chapter 05
00:29:37.166 : en:Chapter 06
00:38:13.416 : en:Chapter 07
00:45:11.208 : en:Chapter 08
00:51:36.000 : en:Chapter 09
00:58:30.125 : en:Chapter 10
01:07:33.000 : en:Chapter 11
01:15:49.833 : en:Chapter 12
pb.wtf



Скачать Стреляйте в пианиста через торрент http://i3.imageban.ru/out/2017/11/25/36c4c7002b615a3965732b7dfa507891.png Скачать фильм Стреляйте в пианиста через торрент бесплантно в хорошем качестве Описание:Пытаясь забыть о трагедии, произошедшей с его женой, некогда известный пианист Эдвард Сароян работает в баре под именем Шарли ... 5 10 1
Info! Золотая раздача, скачанное не засчитывается.
Торрент: Зарегистрирован [2017-11-25 10:26] · скачан: 37 раз
Статус: √ проверено
Размер: 6.33 GB
Как cкачать? Как скачать Стреляйте в пианиста через торрент | qTorrent

% Раздел Тема Автор DL S | L
Арт-хаус и авторское кино [ 7.95 GB ] Стреляйте в пианиста / Tirez sur le pianiste [1960 фильм-нуар BDRip 1080p by msltel] 2 x MVO msltel Скачать
1 | 0
Арт-хаус и авторское кино [ 2.54 GB ] Стреляйте в пианиста / Tirez sur le pianiste [1960 фильм-нуар BDRip 720p by msltel] 2 x MVO msltel Скачать
1 | 0

28-11-2019 20:33  

Отключить всю рекламу на сайте

    Дорогой пользователь! Огромная просьба, поблагодарите релизера, оцените раздачу и оставьте свои комментарий, если Вы скачали Стреляйте в пианиста через торрент бесплатно! Внесите свою лепту в развитие PiratBit!
    Комментировать посты могут только пользователи прошедшие не сложную регистрацию
    Показать сообщения:    

    Стреляйте в пианиста через торрент
    Скачать бесплатно Стреляйте в пианиста
    Стреляйте в пианиста скачать торрент
    Стреляйте в пианиста смотреть онлайн
    Cкачать фильм Стреляйте в пианиста бесплатно
    Стреляйте в пианиста скачать торрент в хорошем качестве
    Стреляйте в пианиста смотреть онлайн бесплатно в хорошем качестве


    Вы не можете начинать темы
    Вы не можете отвечать на сообщения
    Вы не можете редактировать свои сообщения
    Вы не можете удалять свои сообщения
    Вы не можете голосовать в опросах
    Вы не можете прикреплять файлы к сообщениям
    Вы можете скачивать файлы