Ссылка на приватное зеркало всего за 1$. Внимание количество ограничено!!!


iTunes

1+1

iTunes

мы

WEB-DL

1

iTunes

Чернобыль

iTunes

Ральф против интернета

Лицензия

ПШазам

Лицензия

Оно 2

WEB-DL

30
pack

Вам бонус

ВАЖНО

!!Акция!!

Alien_RageХит недели

RePack

Resident Evil 21

ИГРА 18+

pack

RePack

jed

!!Акция!!

Alien_Rage

RePack

fifa19

RePack

Assassins Creed: Odyssey

RePack

NEED FOR SPEED™ PAYBACK

4 сезон

9 сезон

Бесстыжие 9 сезон

Все сериалы

все сериалы на PB.wtf

RePack

FAR CRY 5
Ребята, катастрофически не хватает 1900р. для оплаты серверов за Октябрь (всвязи с блокировками трафик упал в 3 раза), 1-2р., выручайте.
  

Твист снова в Москве / Twist again a Moscou (Жан-Мари Пуаре) [1986 г., Комедия, DVDRip-AVC, Профессиональный (двухголосый)] от ExKinoRay pb.wtf

Твист снова в Москве через торрент pb.wtf

Размер: 1.81 GB | Добавлен: 2 года назад | Торрент скачан:7 раз
Скачать  

25-11-2017 14:07 Твист снова в Москве Скачать торрент  

Твист снова в Москве / Twist again a Moscou
Год выпуска: 1986
Страна: Франция
Жанр: Комедия
Продолжительность: 01:29:58
Перевод: Профессиональный (двухголосый)

Режиссер: Жан-Мари Пуаре

Премьера в мире: 22 октября 1986

rating

В ролях: Филипп Нуаре, Кристиан Клавье, Бернар Блие, Марина Влади, Аньес Сораль, Анаис Жаннре, Жак Франсуа, Ролан Бланш, Мартан Ламотт

Описание: В 1984 году за несколько лет до распада СССР, певица Татьяна отправляется в тур с гастролями по нашей стране. Неожиданно на один из ее концертов врываются люди из КГБ, которые разыскивают ее отца. Помочь Татьяне вызывается ее друг Юрий, который пытается решить дело, используя свои родственные связи.Однако, все его попытки исправить дело терпят крах. Юрий сам начинает все больше запутываться в порочном кругу своих родственников, государственных чиновников и агентов КГБ. Ближайшие пару дней для него превратятся в настоящий кошмар.

Качество: DVDRip-AVC
Формат: MKV
Видео кодек: MPEG4
Аудио кодек: AC3
Видео: MPEG-4 AVC, 2500 Кбит/с, 700x444@746x444, 25 кадров/сек
Аудио#1: Русский (AC3, 2 ch, 192 Кбит/с, 48 КГц)
Аудио#2: Французский (AC3, 2 ch, 192 Кбит/с, 48 КГц)
Релиз от:




raw [info]: 700x444p 16:15 @ 25/1 fps (cfr)
x264 [info]: using SAR=16/15
x264 [info]: using cpu capabilities: MMX2 SSE2Fast LZCNT
x264 [info]: profile High, level 4.1
x264 [info]: frame I:1073 Avg QP:16.79 size: 58562
x264 [info]: frame P:31063 Avg QP:19.28 size: 24043
x264 [info]: frame B:102819 Avg QP:21.03 size: 8531
x264 [info]: consecutive B-frames: 1.8% 2.6% 8.3% 34.5% 21.2% 27.8% 3.0% 0.6% 0.3% 0.0% 0.0% 0.0% 0.0% 0.0% 0.0% 0.0% 0.0%
-----
Общее
Уникальный идентификатор : 213687263516961539349361777067784289422 (0xA0C2AB821D747D2E928013753C5E3C8E)
Полное имя : D:\ExKinoRay\Twist.again.Moscou.1986.DVDRip-AVC.ExKinoRay.mkv
Формат : Matroska
Версия формата : Version 2
Размер файла : 1,81 Гбайт
Продолжительность : 1 ч. 29 м.
Общий поток : 2886 Кбит/сек
Дата кодирования : UTC 2017-11-25 11:16:10
Программа кодирования : mkvmerge v7.8.0 ('River Man') 32bit built on Apr 3 2015 12:11:22
Библиотека кодирования : libebml v1.3.1 + libmatroska v1.4.2

Видео
Идентификатор : 1
Формат : AVC
Формат/Информация : Advanced Video Codec
Профиль формата : High@L4.1
Параметр CABAC формата : Да
Параметр ReFrames формата : 14 кадров
Идентификатор кодека : V_MPEG4/ISO/AVC
Продолжительность : 1 ч. 29 м.
Битрейт : 2500 Кбит/сек
Ширина : 700 пикселей
Высота : 444 пикселя
Соотношение сторон : 5:3
Соотношение сторон в оригинале : 5:3
Режим частоты кадров : Постоянный
Частота кадров : 25,000 кадров/сек
Цветовое пространство : YUV
Субдискретизация насыщенности : 4:2:0
Битовая глубина : 8 бит
Тип развёртки : Прогрессивная
Бит/(Пиксели*Кадры) : 0.322
Размер потока : 1,54 Гбайт (85%)
Библиотека кодирования : x264 core 148 r2638 7599210
Настройки программы : cabac=1 / ref=14 / deblock=1:-2:-2 / analyse=0x3:0x133 / me=umh / subme=10 / psy=1 / psy_rd=1.05:0.15 / mixed_ref=1 / me_range=32 / chroma_me=1 / trellis=2 / 8x8dct=1 / cqm=0 / deadzone=21,11 / fast_pskip=0 / chroma_qp_offset=-3 / threads=4 / lookahead_threads=1 / sliced_threads=0 / nr=0 / decimate=0 / interlaced=0 / bluray_compat=0 / constrained_intra=0 / bframes=16 / b_pyramid=2 / b_adapt=2 / b_bias=0 / direct=3 / weightb=1 / open_gop=0 / weightp=2 / keyint=250 / keyint_min=25 / scenecut=40 / intra_refresh=0 / rc=2pass / mbtree=0 / bitrate=2500 / ratetol=1.0 / qcomp=0.60 / qpmin=0 / qpmax=69 / qpstep=4 / cplxblur=20.0 / qblur=0.5 / ip_ratio=1.40 / pb_ratio=1.30 / aq=1:1.00
Язык : English
Default : Да
Forced : Нет
Цветовой диапазон : Limited
Основные цвета : BT.601 NTSC
Характеристики трансфера : BT.601
Коэффициенты матрицы : BT.601

Аудио #1
Идентификатор : 2
Формат : AC-3
Формат/Информация : Audio Coding 3
Расширение режима : CM (complete main)
Параметр Endianness формата : Big
Идентификатор кодека : A_AC3
Продолжительность : 1 ч. 29 м.
Вид битрейта : Постоянный
Битрейт : 192 Кбит/сек
Каналы : 2 канала
Расположение каналов : Front: L R
Частота : 48,0 КГц
Частота кадров : 31,250 кадров/сек (1536 spf)
Метод сжатия : С потерями
Размер потока : 124 Мбайт (7%)
Язык : Russian
Default : Да
Forced : Нет

Аудио #2
Идентификатор : 3
Формат : AC-3
Формат/Информация : Audio Coding 3
Расширение режима : CM (complete main)
Параметр Endianness формата : Big
Идентификатор кодека : A_AC3
Продолжительность : 1 ч. 29 м.
Вид битрейта : Постоянный
Битрейт : 192 Кбит/сек
Каналы : 2 канала
Расположение каналов : Front: L R
Частота : 48,0 КГц
Частота кадров : 31,250 кадров/сек (1536 spf)
Метод сжатия : С потерями
Размер потока : 124 Мбайт (7%)
Язык : French
Default : Нет
Forced : Нет

pb.wtf



Скачать Твист снова в Москве через торрент http://s003.radikal.ru/i202/1406/ae/63307f21abb1.jpg Скачать фильм Твист снова в Москве через торрент бесплантно в хорошем качестве Описание: В 1984 году за несколько лет до распада СССР, певица Татьяна отправляется в тур с гастролями по нашей стране. Неожиданно на один ... 5 10 1
Info! Золотая раздача, скачанное не засчитывается.
Торрент: Зарегистрирован [2017-11-25 14:07] · скачан: 7 раз
Статус: √ проверено
Размер: 1.81 GB
Как cкачать? Как скачать Твист снова в Москве через торрент | qTorrent

28-11-2019 20:33  

Отключить всю рекламу на сайте

    Дорогой пользователь! Огромная просьба, поблагодарите релизера, оцените раздачу и оставьте свои комментарий, если Вы скачали Твист снова в Москве через торрент бесплатно! Внесите свою лепту в развитие PiratBit!
    Комментировать посты могут только пользователи прошедшие не сложную регистрацию
    Показать сообщения:    

    Твист снова в Москве через торрент
    Скачать бесплатно Твист снова в Москве
    Твист снова в Москве скачать торрент
    Твист снова в Москве смотреть онлайн
    Cкачать фильм Твист снова в Москве бесплатно
    Твист снова в Москве скачать торрент в хорошем качестве
    Твист снова в Москве смотреть онлайн бесплатно в хорошем качестве


    Вы не можете начинать темы
    Вы не можете отвечать на сообщения
    Вы не можете редактировать свои сообщения
    Вы не можете удалять свои сообщения
    Вы не можете голосовать в опросах
    Вы не можете прикреплять файлы к сообщениям
    Вы можете скачивать файлы