2 сезон

iTunes

MVO

1

2 сезон

iTunes

iTunes

1 сезон

RePack

30

Ultimate

ВАЖНО

ИГРА 18+

pack

RePack

MK11
pack

Легкие деньги

RePack

jed

RePack

fifa19

RePack

RDR2

RePack

NEED FOR SPEED™ PAYBACK

4 сезон

9 сезон

Бесстыжие 9 сезон

Все сериалы

все сериалы на PB.wtf

RePack

FAR CRY 5

Anonymous, доброй ночи, мы не успеваем собрать деньги на оплату серверов за декабрь и январь, помогите нам пожалуйста в это трудное время. В качестве благодарности мы отключим Вам всю рекламу на сайте (укажите свой ник в строку Ваше имя)!

×
  
Magnet ссылка

Роковое искушение / The Beguiled (София Коппола) [2017, драма, HDRip, КПК] DUB [Лицензия] pb.wtf

Роковое искушение через торрент pb.wtf

Размер: 354 MB | Добавлен: 3 года 1 мес. назад | Торрент скачан:18 раз
Скачать  

25-11-2017 14:45 Роковое искушение Скачать торрент  

Роковое искушение / The BeguiledИнформация о фильме:

Год выпуска: 2017
Страна: США
Жанр: драма
Продолжительность: 01:34:46
Перевод: Дубляж Лицензия
Субтитры: отсутствуют

Режиссер: София Коппола

rating

В ролях:

Колин Фаррелл, Николь Кидман, Кирстен Данст, Элль Фэннинг, Уна Лоуренс, Энгаури Райс, Эддисон Рики, Эмма Ховард, Уэйн Пер, Мэтт Стори

Описание:

Раненый янки Джон МакБарней (Колин Фаррелл), капрал армии северян, был спасен от смерти юной конфедераткой из южной школы-интерната. Женский коллектив ухаживает за ним и делает все для его лечения. Вскоре Джон начинает поправляться и понимает, в какое благодатное место его привела судьба. Одна за другой девушки оказываются очарованы обаятельным выздоравливающим. Постепенно атмосфера в школе накаляется — каждая мечтает завоевать расположение красавца-мужчины. Вскоре ревность, обман и обиды приходят на смену душевной близости и сердечности.

Технические данные файла:

Качество: HDRip (Исх. BDRip 720p от Scarabey)
Формат: MP4
Видео кодек: AVC
Аудио кодек: AAC-LC

Видео: 640x384 (1.67:1), 23,976 fps, MPEG-4 AVC ~ 400 kbps (0.068 bit/pixel)
Аудио: AAC-LC, 48.0 KHz, 2 ch, 128 kbps
скриншот   скриншот   скриншот   скриншот  

Общее
Полное имя : D:\The.Beguiled.[2017].HDRip.[kaztorrents].mp4
Формат : MPEG-4
Профиль формата : Base Media
Идентификатор кодека : isom (isom/avc1/iso6)
Размер файла : 354 Мбайт
Продолжительность : 1 ч. 33 м.
Режим общего битрейта : Переменный
Общий поток : 532 Кбит/сек
Дата кодирования : UTC 2017-11-23 19:26:59
Дата пометки : UTC 2017-11-23 19:26:59

Видео
Идентификатор : 1
Формат : AVC
Формат/Информация : Advanced Video Codec
Профиль формата : High@L4.1
Параметр CABAC формата : Да
Параметр ReFrames формата : 10 кадров
Идентификатор кодека : avc1
Идентификатор кодека/Информация : Advanced Video Coding
Продолжительность : 1 ч. 33 м.
Битрейт : 400 Кбит/сек
Максимальный битрейт : 1778 Кбит/сек
Ширина : 640 пикселей
Высота : 384 пикселя
Соотношение сторон : 5:3
Режим частоты кадров : Постоянный
Частота кадров : 23,976 (24000/1001) кадра/сек
Цветовое пространство : YUV
Субдискретизация насыщенности : 4:2:0
Битовая глубина : 8 бит
Тип развёртки : Прогрессивная
Бит/(Пиксели*Кадры) : 0.068
Размер потока : 266 Мбайт (75%)
Заголовок : 264@GPAC0.5.2-DEV-rev248-g39d5978-master
Библиотека кодирования : x264 core 146 r2538 121396c
Настройки программы : cabac=1 / ref=10 / deblock=1:-3:-3 / analyse=0x3:0x113 / me=umh / subme=11 / psy=1 / psy_rd=1.00:0.00 / mixed_ref=1 / me_range=32 / chroma_me=1 / trellis=2 / 8x8dct=1 / cqm=0 / deadzone=21,11 / fast_pskip=0 / chroma_qp_offset=-2 / threads=6 / lookahead_threads=1 / sliced_threads=0 / nr=0 / decimate=1 / interlaced=0 / bluray_compat=0 / constrained_intra=0 / bframes=10 / b_pyramid=2 / b_adapt=2 / b_bias=0 / direct=3 / weightb=1 / open_gop=0 / weightp=2 / keyint=240 / keyint_min=23 / scenecut=40 / intra_refresh=0 / rc_lookahead=40 / rc=2pass / mbtree=0 / bitrate=400 / ratetol=1.0 / qcomp=0.60 / qpmin=0 / qpmax=69 / qpstep=4 / cplxblur=20.0 / qblur=0.5 / vbv_maxrate=14000 / vbv_bufsize=14000 / nal_hrd=none / filler=0 / ip_ratio=1.40 / pb_ratio=1.30 / aq=1:1.00
Дата кодирования : UTC 2017-11-23 19:26:59
Дата пометки : UTC 2017-11-23 19:27:11

Аудио
Идентификатор : 2
Формат : AAC
Формат/Информация : Advanced Audio Codec
Профиль формата : LC
Идентификатор кодека : 40
Продолжительность : 1 ч. 33 м.
Вид битрейта : Переменный
Битрейт : 128 Кбит/сек
Максимальный битрейт : 146 Кбит/сек
Каналы : 2 канала
Расположение каналов : Front: L R
Частота : 48,0 КГц
Частота кадров : 46,875 кадров/сек (1024 spf)
Метод сжатия : С потерями
Размер потока : 85,2 Мбайт (24%)
Дата кодирования : UTC 2017-11-23 16:44:43
Дата пометки : UTC 2017-11-23 19:27:11

pb.wtf



Скачать Роковое искушение через торрент http://i89.fastpic.ru/big/2017/1008/1f/1919a5f1d44c378f03818629ec810a1f.png Скачать фильм Роковое искушение через торрент бесплантно в хорошем качестве Описание: Раненый янки Джон МакБарней (Колин Фаррелл), капрал армии северян, был спасен от смерти юной конфедераткой из южной ... 10 10 2
Торрент: Зарегистрирован [2017-11-25 14:45] · скачан: 18 раз
Статус: √ проверено
Размер: 354 MB
Как cкачать? Как скачать Роковое искушение через торрент | UTorrent

% Раздел Тема Автор DL S | L
Фильмы [HD 720p, 1080p] (Хороший звук DUB, MVO) [ 3.48 GB ] Роковое искушение / The Beguiled [2017 BDRip 720p] [] killermax2013 Скачать
1 | 0
Фильмы 2017 [DVDrip, WEB-DLRip, HDrip] (DUB, MVO) [ 1.46 GB ] Роковое искушение / The Beguiled [2017 BDRip] - [] Twi7ter Скачать
1 | 0
Фильмы (Blu-ray, BD-Remux, HDDVD) [ 23.72 GB ] Роковое искушение / The Beguiled [2017 BD Remux 1080p] DUB [ EUR] bober100 Скачать
1 | 0
Фильмы 2017 [DVDrip, WEB-DLRip, HDrip] (DUB, MVO) [ 1.63 GB ] Роковое искушение / The Beguiled [2017 BDRip-AVC] DUB [] bober100 Скачать
1 | 0
Фильмы 2017 [DVDrip, WEB-DLRip, HDrip] (DUB, MVO) [ 1.53 GB ] Роковое искушение / The Beguiled [2017 BDRip-AVC] DUB [] - ExKinoRay Enigma2010 Скачать
1 | 0
Фильмы 2017 [DVDrip, WEB-DLRip, HDrip] (DUB, MVO) [ 1.37 GB ] Роковое искушение / The Beguiled [2017 HDRip] DUB [] bober100 Скачать
1 | 0

28-11-2019 20:33  

Отключить всю рекламу на сайте

    Дорогой пользователь! Огромная просьба, поблагодарите релизера, оцените раздачу и оставьте свои комментарий, если Вы скачали Роковое искушение через торрент бесплатно! Внесите свою лепту в развитие PiratBit!
    Комментировать посты могут только пользователи прошедшие не сложную регистрацию
    Показать сообщения:    

    Роковое искушение через торрент
    Скачать бесплатно Роковое искушение
    Роковое искушение скачать торрент
    Роковое искушение смотреть онлайн
    Cкачать фильм Роковое искушение бесплатно
    Роковое искушение скачать торрент в хорошем качестве
    Роковое искушение смотреть онлайн бесплатно в хорошем качестве


    Вы не можете начинать темы
    Вы не можете отвечать на сообщения
    Вы не можете редактировать свои сообщения
    Вы не можете удалять свои сообщения
    Вы не можете голосовать в опросах
    Вы не можете прикреплять файлы к сообщениям
    Вы можете скачивать файлы