Ссылка на приватное зеркало нашего сайта всего за 1$. Внимание количество ограничено!!!

2 сезон

iTunes

1 сезон

1

iTunes

iTunes

iTunes

1 сезон

RePack

30

ИГРА 18+

pack

ВАЖНО

!!Акция!!

Alien_RageХит недели

RePack

MK11
pack

Забери бонус

RePack

jed

!!Акция!!

Alien_Rage

RePack

fifa19

RePack

Assassins Creed: Odyssey

RePack

NEED FOR SPEED™ PAYBACK

4 сезон

9 сезон

Бесстыжие 9 сезон

Все сериалы

все сериалы на PB.wtf

RePack

FAR CRY 5
  

Секрет неприступной красавицы / Серии 1-2 из 2 (Ольга Лысенко (II) [2017, Мелодрама, WEB-DLRip] pb.wtf

Секрет неприступной красавицы через торрент pb.wtf

Размер: 1.08 GB | Добавлен: 2 года 10 мес. назад | Торрент скачан:95 раз
Скачать  

25-11-2017 15:01 Секрет неприступной красавицы Скачать торрент  

Секрет неприступной красавицы
Год выпуска: 2017
Страна: Россия, Украина
Жанр: Мелодрама
Продолжительность: 2 x ~ 00:43:00
Перевод: Не требуется
Субтитры: отсутствуют

Режиссер: Ольга Лысенко (II)



В ролях:

Евгения Лоза, Михаил Пшеничный, Александр Арсентьев, Сергей Калантай, Ксения Николаева, Евгения Гладий

Описание:

Первая любовь всегда проходит. Исключение только подтверждает правило, и Елена – именно такое исключение. Вот уже 16 лет она хранит верность своей первой любви – не самому Вячеславу, предавшему её, а чувству, которое она к нему испытывала. Поклонников у неё достаточно, только Елене они не нужны. И вот однажды в её жизни снова появляется Вячеслав. Блестящие надежды, которые он подавал, пошли прахом, карьера не задалась, жизнь его основательно потрепала. В довершение всех бед он получил тяжёлую травму и лежит в больнице – всеми забытый, никому не нужный. И Елена отправляется к нему...

Качество: WEB-DLRip
Формат: AVI
Видео кодек: XviD
Аудио кодек: AC3

Видео: XviD, ~ 1600 Кбит/с, 720x400
Аудио#1: AC3, 2 ch, 192 Кбит/с
скриншот   скриншот   скриншот   скриншот  

Общее
Полное имя : D:\торреннты\Sekret.nepristupnoj.krasavicy.2017.WEB-DLRip.Files-x\01..Sekret.nepristupnoj.krasavicy.2017.WEB-DLRip.Files-x.avi
Формат : AVI
Формат/Информация : Audio Video Interleave
Размер файла : 550 Мбайт
Продолжительность : 43 м. 28 с.
Общий поток : 1770 Кбит/сек
Программа кодирования : VirtualDubMod 1.5.10.3 | www.virtualdub-fr.org || (build 2550/release)
Библиотека кодирования : VirtualDubMod build 2550/release

Видео
Идентификатор : 0
Формат : MPEG-4 Visual
Профиль формата : Advanced Simple@L5
Параметр BVOP формата : 1
Параметр QPel формата : Нет
Параметр GMC формата : Без точки перехода
Параметр матрицы формата : Выборочная
Идентификатор кодека : XVID
Идентификатор кодека/Подсказка : XviD
Продолжительность : 43 м. 28 с.
Битрейт : 1568 Кбит/сек
Ширина : 720 пикселей
Высота : 400 пикселей
Соотношение сторон : 16:9
Частота кадров : 25,000 кадров/сек
Цветовое пространство : YUV
Субдискретизация насыщенности : 4:2:0
Битовая глубина : 8 бит
Тип развёртки : Прогрессивная
Метод сжатия : С потерями
Бит/(Пиксели*Кадры) : 0.218
Размер потока : 488 Мбайт (89%)
Библиотека кодирования : XviD 73

Аудио
Идентификатор : 1
Формат : AC-3
Формат/Информация : Audio Coding 3
Расширение режима : CM (complete main)
Параметр Endianness формата : Big
Идентификатор кодека : 2000
Продолжительность : 43 м. 28 с.
Вид битрейта : Постоянный
Битрейт : 192 Кбит/сек
Каналы : 2 канала
Расположение каналов : Front: L R
Частота : 48,0 КГц
Частота кадров : 31,250 кадров/сек (1536 spf)
Метод сжатия : С потерями
Размер потока : 59,7 Мбайт (11%)
Выравнивание : Разделение по промежуткам
Продолжительность промежутка : 40 мс. (1,00 видеокадр)
Время предзагрузки промежутка : 500 мс.

pb.wtf



Скачать Секрет неприступной красавицы через торрент http://i97.fastpic.ru/big/2017/1124/0e/e1b36c5b73394935b6ea0d7f5192420e.jpeg Скачать фильм Секрет неприступной красавицы через торрент бесплантно в хорошем качестве Описание: Первая любовь всегда проходит. Исключение только подтверждает правило, и Елена – именно такое исключение. Вот уже 16 лет она ... 9 10 6
Торрент: Зарегистрирован [2017-11-25 15:01] · скачан: 95 раз
Статус: √ проверено
Размер: 1.08 GB
Как cкачать? Как скачать Секрет неприступной красавицы через торрент | qTorrent

% Раздел Тема Автор DL S | L
Наши сериалы [ 1.05 GB ] Секрет неприступной красавицы / Серии: 1-2 из 2 [2017 SATRip-AVC] aleksan55 Скачать
1 | 0

28-11-2019 20:33  

Отключить всю рекламу на сайте

    Дорогой пользователь! Огромная просьба, поблагодарите релизера, оцените раздачу и оставьте свои комментарий, если Вы скачали Секрет неприступной красавицы через торрент бесплатно! Внесите свою лепту в развитие PiratBit!
    Комментировать посты могут только пользователи прошедшие не сложную регистрацию
    Показать сообщения:    

    Секрет неприступной красавицы через торрент
    Скачать бесплатно Секрет неприступной красавицы
    Секрет неприступной красавицы скачать торрент
    Секрет неприступной красавицы смотреть онлайн
    Cкачать фильм Секрет неприступной красавицы бесплатно
    Секрет неприступной красавицы скачать торрент в хорошем качестве
    Секрет неприступной красавицы смотреть онлайн бесплатно в хорошем качестве


    Вы не можете начинать темы
    Вы не можете отвечать на сообщения
    Вы не можете редактировать свои сообщения
    Вы не можете удалять свои сообщения
    Вы не можете голосовать в опросах
    Вы не можете прикреплять файлы к сообщениям
    Вы можете скачивать файлы