2 сезон

iTunes

MVO

1

2 сезон

iTunes

iTunes

1 сезон

RePack

30

Новинка

ВАЖНО

ИГРА 18+

pack

RePack

MK11
pack

Легкие деньги

RePack

jed

RePack

fifa19

RePack

RDR2

RePack

NEED FOR SPEED™ PAYBACK

4 сезон

9 сезон

Бесстыжие 9 сезон

Все сериалы

все сериалы на PB.wtf

RePack

FAR CRY 5

Anonymous, добрый вечер, мы не успеваем собрать деньги на оплату серверов за декабрь и январь, помогите нам пожалуйста в это трудное время. В качестве благодарности мы отключим Вам всю рекламу на сайте (укажите свой ник в строку Ваше имя)!

×
  
Magnet ссылка

2pac: Легенда / All Eyez on Me (Бенни Бум) [2017, драма, биография, музыка, BDRip-AVC] DUB [iTunes] - ExKinoRay pb.wtf

2pac: Легенда через торрент pb.wtf

Размер: 1.44 GB | Добавлен: 3 года 1 мес. назад | Торрент скачан:325 раз
Скачать  

26-11-2017 04:19 2pac: Легенда Скачать торрент  

Информация о фильме
Название: 2Pac: Легенда
Оригинальное название: All Eyez on Me
Год выхода: 2017
Жанр: Драма, биография, музыка
Страна: США
Студия: Code Black Entertainment, Morgan Creek Productions, Program Pictures, Voltage Pictures
Продолжительность: 02:19:37
Перевод: Дублированный | iTunes
Субтитры: Английские, испанские
Режиссер: Бенни Бум
В ролях: Деметриус Шипп мл., Данай Джекесай Гурира, Катерина Грэхэм, Хилл Харпер, Энни Илонзе, Лорен Кохэн, Джамал Вулард, Доминик Сантана, Кори Хардрикт, Клифтон Пауэлл, Джэми Гектор, Рэйвен Саймон Феррелл, Шанель Янг, Брэндон Сове, Джош Вентура, Райан Рётс, Брюс Дэвис, Том Тон, Брайан Курландер, Лиан Тони Амадо, Скотт Хантер, Дэвид Флэннери, Кендрик Кросс, Хоуп Эш, Харольд Хаус Мур, Джернел Ховард, Вернелл Варнадо, Дамита Джейн Ховард, Филип Дайдо, Ямал Уэверз, Малкольм Гринидж, Фил Армихо, Майкл Бисли

Описание:
Фильм посвящён судьбе и творчеству Тупака Шакура. Это правдивая история о том, как чернокожий выходец из гетто, участник криминальных разборок, неоднократно привлекавшийся к суду и развязавший смертельную войну рекорд-лейблов, становится настоящим голосом улиц и одним из самых влиятельных исполнителей в мировой рэп-культуре.

rating

Файл
Формат: MKV
Качество: BDRip AVC
Видео: MPEG-4 AVC, 720x302 (2.40:1), 23.976 fps, ~1290 kbps avg, 0.247 bit/pixel
Аудио: 48 kHz, AC3 Dolby Digital, 2 ch, ~192.00 kbps avg | RUS
General
Unique ID : 245561495286689396755377098316283869700 (0xB8BD6C7759392747BCA3ED9BFFEB7A04)
Complete name : D:\All.Eyez.on.Me.2017.BDRip.AVC.ExKinoRay.mkv
Format : Matroska
Format version : Version 2
File size : 1.44 GiB
Duration : 2 h 19 min
Overall bit rate : 1 481 kb/s
Movie name : All Eyez on Me (2017) from ExKinoRay
Encoded date : UTC 2017-11-25 05:12:40
Writing application : mkvmerge v5.6.0 ('Kenya Kane') built on May 27 2012 16:44:04
Writing library : libebml v1.2.3 + libmatroska v1.3.0

Video
ID : 1
Format : AVC
Format/Info : Advanced Video Codec
Format profile : High@L4.1
Format settings, CABAC : Yes
Format settings, ReFrames : 12 frames
Codec ID : V_MPEG4/ISO/AVC
Duration : 2 h 19 min
Bit rate : 1 290 kb/s
Width : 720 pixels
Height : 302 pixels
Display aspect ratio : 2.40:1
Frame rate mode : Constant
Frame rate : 23.976 (24000/1001) FPS
Original frame rate : 23.976 (23976/1000) FPS
Color space : YUV
Chroma subsampling : 4:2:0
Bit depth : 8 bits
Scan type : Progressive
Bits/(Pixel*Frame) : 0.247
Stream size : 1.23 GiB (85%)
Title : Enigma
Writing library : x264 core 152 r2851 ba24899
Encoding settings : cabac=1 / ref=12 / deblock=1:-2:-2 / analyse=0x3:0x113 / me=umh / subme=10 / psy=1 / psy_rd=1.00:0.04 / mixed_ref=1 / me_range=32 / chroma_me=1 / trellis=2 / 8x8dct=1 / cqm=0 / deadzone=21,11 / fast_pskip=1 / chroma_qp_offset=-3 / threads=9 / lookahead_threads=2 / sliced_threads=0 / nr=0 / decimate=0 / interlaced=0 / bluray_compat=0 / constrained_intra=0 / bframes=12 / b_pyramid=2 / b_adapt=2 / b_bias=0 / direct=3 / weightb=1 / open_gop=0 / weightp=2 / keyint=240 / keyint_min=23 / scenecut=40 / intra_refresh=0 / rc_lookahead=40 / rc=2pass / mbtree=0 / bitrate=1290 / ratetol=1.0 / qcomp=0.60 / qpmin=0 / qpmax=51 / qpstep=4 / cplxblur=20.0 / qblur=0.5 / vbv_maxrate=50000 / vbv_bufsize=62500 / nal_hrd=none / filler=0 / ip_ratio=1.40 / pb_ratio=1.30 / aq=1:1.00
Default : Yes
Forced : No
Color range : Limited
Color primaries : BT.709
Transfer characteristics : BT.709
Matrix coefficients : BT.709

Audio
ID : 2
Format : AC-3
Format/Info : Audio Coding 3
Mode extension : CM (complete main)
Format settings, Endianness : Big
Codec ID : A_AC3
Duration : 2 h 19 min
Bit rate mode : Constant
Bit rate : 192 kb/s
Channel(s) : 2 channels
Channel positions : Front: L R
Sampling rate : 48.0 kHz
Frame rate : 31.250 FPS (1536 spf)
Compression mode : Lossy
Stream size : 192 MiB (13%)
Title : Dub (iTunes)
Language : Russian
Default : Yes
Forced : No

Text #1
ID : 3
Format : UTF-8
Codec ID : S_TEXT/UTF8
Codec ID/Info : UTF-8 Plain Text
Language : English
Default : No
Forced : No

Text #2
ID : 4
Format : UTF-8
Codec ID : S_TEXT/UTF8
Codec ID/Info : UTF-8 Plain Text
Language : Spanish
Default : No
Forced : No

Menu
00:00:00.000 : en:Chapter 01
00:08:11.240 : en:Chapter 02
00:18:13.258 : en:Chapter 03
00:26:49.899 : en:Chapter 04
00:35:10.691 : en:Chapter 05
00:44:50.104 : en:Chapter 06
00:52:41.533 : en:Chapter 07
01:01:27.934 : en:Chapter 08
01:09:20.489 : en:Chapter 09
01:19:04.656 : en:Chapter 10
01:27:41.547 : en:Chapter 11
01:35:07.410 : en:Chapter 12
01:44:51.952 : en:Chapter 13
01:52:30.994 : en:Chapter 14
02:03:28.484 : en:Chapter 15
02:14:28.977 : en:Chapter 16
Релиз от:

Автор релиза: pb.wtf



Скачать 2pac: Легенда через торрент http://i89.fastpic.ru/big/2017/0826/c5/dd93e0b6303ac54ccdeb543aad1eb0c5.png Скачать фильм 2pac: Легенда через торрент бесплантно в хорошем качестве Описание:Фильм посвящён судьбе и творчеству Тупака Шакура. Это правдивая история о том, как чернокожий выходец из гетто, участник ... 8.5 10 11
Info! Золотая раздача, скачанное не засчитывается.
Торрент: Зарегистрирован [2017-11-26 04:19] · скачан: 325 раз
Статус: √ проверено
Размер: 1.44 GB
Как cкачать? Как скачать 2pac: Легенда через торрент | UTorrent

28-11-2019 20:33  

Отключить всю рекламу на сайте

26-11-2017 06:20 2pac: Легенда Скачать торрент  

Мало того, что он 3,14рас, так он еще и тупак! Охренеть.pb.wtf



26-11-2017 13:46 2pac: Легенда Скачать торрент  

JIokki писал(а):

Мало того, что он 3,14рас, так он еще и тупак! Охренеть.

О вагон с мудилами подвезли!!!pb.wtf



26-11-2017 14:46 2pac: Легенда Скачать торрент  

Shinobio писал(а):

JIokki писал(а):

Мало того, что он 3,14рас, так он еще и тупак! Охренеть.

О вагон с мудилами подвезли!!!

Ну, хорошо, хорошо... судя по постеру, вполне себе брутальный мужик. (похмелье у меня с утра было и настроение соответствующее). Но то что он негр-тупак, ты же не будешь отрицать?pb.wtf



    Дорогой пользователь! Огромная просьба, поблагодарите релизера, оцените раздачу и оставьте свои комментарий, если Вы скачали 2pac: Легенда через торрент бесплатно! Внесите свою лепту в развитие PiratBit!
    Комментировать посты могут только пользователи прошедшие не сложную регистрацию
    Показать сообщения:    

    2pac: Легенда через торрент
    Скачать бесплатно 2pac: Легенда
    2pac: Легенда скачать торрент
    2pac: Легенда смотреть онлайн
    Cкачать фильм 2pac: Легенда бесплатно
    2pac: Легенда скачать торрент в хорошем качестве
    2pac: Легенда смотреть онлайн бесплатно в хорошем качестве


    Вы не можете начинать темы
    Вы не можете отвечать на сообщения
    Вы не можете редактировать свои сообщения
    Вы не можете удалять свои сообщения
    Вы не можете голосовать в опросах
    Вы не можете прикреплять файлы к сообщениям
    Вы можете скачивать файлы