Ссылка на приватное зеркало нашего сайта всего за 1$. Внимание количество ограничено!!!

2 сезон

iTunes

1 сезон

1

iTunes

iTunes

iTunes

1 сезон

RePack

30

ИГРА 18+

pack

ВАЖНО

!!Акция!!

Alien_RageХит недели

RePack

MK11
pack

Забери бонус

RePack

jed

!!Акция!!

Alien_Rage

RePack

fifa19

RePack

Assassins Creed: Odyssey

RePack

NEED FOR SPEED™ PAYBACK

4 сезон

9 сезон

Бесстыжие 9 сезон

Все сериалы

все сериалы на PB.wtf

RePack

FAR CRY 5
  

Красные браслеты / Сезон: 1 / Серии 1-12 из 12 (Наталия Мещанинова, Сергей Сенцов) [2015, Россия, Украина, Драма, WEB-DLRip] pb.wtf

Красные браслеты через торрент pb.wtf

Размер: 6.46 GB | Добавлен: 2 года 11 мес. назад | Торрент скачан:117 раз
Скачать  

26-11-2017 04:57 Красные браслеты Скачать торрент  

Красные браслеты


  • Год выпуска: 2015
  • Страна: Россия, Украина, АВК продакшн, Film.UA
  • Жанр: Драма
  • Продолжительность: ~ 00:45:00 (Серия)
  • Перевод: Не требуется [Русский]
  • Режиссер: Наталия Мещанинова, Сергей Сенцов
  • В ролях:
    Филипп Ершов, Кузьма Котрелев, Денис Парамонов, Глеб Калюжный, Азамат Алиев (II), Стася Милославская, Мария Шалаева, Ольга Сутулова, Сергей Юшкевич, Александр Ильин, Евгений Цыганов, Каролина Грушка, Мадлен Джабраилова, Дарья Мороз, Андрей Казаков, Анна Михалкова, Степан Девонин, Дарья Савельева, Евгений Сытый, Владас Багдонас, Александр Кузнецов (XIV), Семён Шемес, Алина Гвасалия, Сергей Походаев, Людмила Ячменева, Сергей Удовик, Сергей Фишер, Алёна Лаптева, Сергей Овчинников (III), Любовь Мульменко


  • Адаптация испанского сериала «Polseres vermelles» («Red Band Society»). Сериал рассказывает о группе подростков в детской больнице, об их взрослении и борьбе c обстоятельствами, о том, как герои дружат и любят, отвечают на вызовы судьбы и делают принципиальные выборы.
  • Рейтинг:



  • Качество: WEB-DLRip
  • Формат: :AVI
  • Видео кодек: XviD
  • Аудио кодек: AC-3
  • Видео: 1453 Кбит/сек, 720*400 (16:9), в 25,000 кадров/сек, MPEG-4 Visual (XviD)
  • Аудио: 192 Кбит/сек, 48,0 КГц, 16 бит, 2 канала, AC-3
  • Релиз от: GeneralFilm

    Внимание! Раздача ведётся путём добавления новых серий; при каждом добавлении создаётся новый торрент. Чтобы начать докачку новой серии, пользователям необходимо сделать следующее:
    (1) остановить скачивание,
    (2) удалить старый торрент у себя из клиента (старые серии удалять не надо),
    (3) скачать новый торрент и запустить его у себя в клиенте вместо старого, при этом указать клиенту путь в старую папку куда и должно происходить скачивание новых серий.
    Ваш клиент при этом должен произвести хеширование (проверку) старой папки (если не производит сам - помогите ему сделать это), и будет докачивать только те серии которых у вас ещё нет. Старые серии при этом не удаляются, а продолжают раздаваться!
    Eсли вы уже удалили старые серии, то предотвратить повторную закачку старых серий можно, отжав галочку в соответствующих местах при запуске нового торрента. По возможности, желательно не удалять старые серии как можно дольше чтобы релизёр не столько продолжал раздавать старые серии, а смог сконцентрироваться на новых.
    Общее
    Полное имя : F:\Krasnye braslety.2015.WEB-DLRip.GeneralFilm\06.Krasnye braslety.2015.WEB-DLRip.GeneralFilm.avi
    Формат : AVI
    Формат/Информация : Audio Video Interleave
    Размер файла : 551 Мбайт
    Продолжительность : 46 м. 34 с.
    Общий поток : 1655 Кбит/сек
    Программа кодирования : VirtualDubMod 1.5.10.3 | www.virtualdub-fr.org || (build 2550/release)
    Библиотека кодирования : VirtualDubMod build 2550/release

    Видео
    Идентификатор : 0
    Формат : MPEG-4 Visual
    Профиль формата : Advanced Simple@L5
    Настройки формата : BVOP1 / Custom Matrix
    Параметр BVOP формата : 1
    Параметр QPel формата : Нет
    Параметр GMC формата : Без точки перехода
    Параметр матрицы формата : Выборочная
    Идентификатор кодека : XVID
    Идентификатор кодека/Подсказка : XviD
    Продолжительность : 46 м. 34 с.
    Битрейт : 1453 Кбит/сек
    Ширина : 720 пикселей
    Высота : 400 пикселей
    Соотношение сторон : 16:9
    Частота кадров : 25,000 кадров/сек
    Цветовое пространство : YUV
    Субдискретизация насыщенности : 4:2:0
    Битовая глубина : 8 бит
    Тип развёртки : Прогрессивная
    Метод сжатия : С потерями
    Бит/(Пиксели*Кадры) : 0.202
    Размер потока : 484 Мбайт (88%)
    Библиотека кодирования : XviD 73

    Аудио
    Идентификатор : 1
    Формат : AC-3
    Формат/Информация : Audio Coding 3
    Идентификатор кодека : 2000
    Продолжительность : 46 м. 34 с.
    Вид битрейта : Постоянный
    Битрейт : 192 Кбит/сек
    Каналы : 2 канала
    Расположение каналов : Front: L R
    Частота : 48,0 КГц
    Частота кадров : 31,250 кадров/сек (1536 SPF)
    Битовая глубина : 16 бит
    Метод сжатия : С потерями
    Размер потока : 63,9 Мбайт (12%)
    Выравнивание : Разделение по промежуткам
    Продолжительность промежутка : 40 мс. (1,00 видеокадр)
    Время предзагрузки промежутка : 500 мс.
    ServiceKind/String : Complete Main



    Скриншоты:
    скриншот   скриншот   скриншот   скриншот   скриншот   скриншот   скриншот  
    скриншот  

    Раздача ведётся путём добавления новых серий. Добавлена 7-12 серия (27.11.2017).Просьба перекачать торрент файл.

    pb.wtf



  • Скачать Красные браслеты через торрент http://pic1.kartinco.top/images/11/a232y.jpg Скачать фильм Красные браслеты через торрент бесплантно в хорошем качестве qw.png Адаптация испанского сериала «Polseres vermelles» («Red Band Society»). Сериал рассказывает о группе подростков в детской ... 7.8 10 4
    Info! Золотая раздача, скачанное не засчитывается.
    Торрент: Зарегистрирован [2017-11-26 23:14] · скачан: 117 раз
    Статус: √ проверено
    Размер: 6.46 GB
    Как cкачать? Как скачать Красные браслеты через торрент | qTorrent

    28-11-2019 20:33  

    Отключить всю рекламу на сайте

      Дорогой пользователь! Огромная просьба, поблагодарите релизера, оцените раздачу и оставьте свои комментарий, если Вы скачали Красные браслеты через торрент бесплатно! Внесите свою лепту в развитие PiratBit!
      Комментировать посты могут только пользователи прошедшие не сложную регистрацию
      Показать сообщения:    

      Красные браслеты через торрент
      Скачать бесплатно Красные браслеты
      Красные браслеты скачать торрент
      Красные браслеты смотреть онлайн
      Cкачать фильм Красные браслеты бесплатно
      Красные браслеты скачать торрент в хорошем качестве
      Красные браслеты смотреть онлайн бесплатно в хорошем качестве


      Вы не можете начинать темы
      Вы не можете отвечать на сообщения
      Вы не можете редактировать свои сообщения
      Вы не можете удалять свои сообщения
      Вы не можете голосовать в опросах
      Вы не можете прикреплять файлы к сообщениям
      Вы можете скачивать файлы