Ссылка на приватное зеркало нашего сайта всего за 1$. Внимание количество ограничено!!!

2 сезон

iTunes

1 сезон

1

iTunes

iTunes

iTunes

1 сезон

RePack

30

ИГРА 18+

pack

ВАЖНО

!!Акция!!

Alien_RageХит недели

RePack

MK11
pack

Забери бонус

RePack

jed

!!Акция!!

Alien_Rage

RePack

fifa19

RePack

Assassins Creed: Odyssey

RePack

NEED FOR SPEED™ PAYBACK

4 сезон

9 сезон

Бесстыжие 9 сезон

Все сериалы

все сериалы на PB.wtf

RePack

FAR CRY 5
  

Братья по обмену / 1-10 серии из 10 (Александр Жигалкин) [2013 г., Комедия, WEB-DL 1080p] pb.wtf

Братья по обмену через торрент pb.wtf

Качают: 1 [ 0 KB/s ]
Размер: 10.92 GB | Добавлен: 2 года 10 мес. назад | Торрент скачан:39 раз
Скачать  

26-11-2017 06:20 Братья по обмену Скачать торрент  

Братья по обмену

Год выпуска: 2013
Страна: Россия
Жанр: Комедия
Продолжительность: ~00:45:00
Субтитры: нет

Режиссер: Александр Жигалкин



В ролях: Фёдор Добронравов, Мария Аронова, Борис Клюев, Галина Петрова, Елена Шевченко, Карэн Бадалов, Мария Горбань, Юлия Зимина, Виктор Добронравов, Светлана Малюкова, Дмитрий Быковский, Сергей Беляев, Олег Кассин, Марина Ильина, Алексей Якубов, Татьяна Жукова-Киртбая, Алина Кизиярова, Анатолий Узденский, Александр Назаров (II), Александр Нестеров, Дмитрий Меденников, Григорий Зельцер

Описание: Валерий Перечихин — фигура большого масштаба, владелец крупной дорожно-строительной компании, консультант Общественного Совета при Комиссии Госдумы по транспорту, известный благотворительностью и выступлениями по телевизору. Моложав, гладко выбрит, хорошо одет.

Федор Перечихин — брат-близнец Валерия, человек добрый, но слабый, выпивает, часто меняет работу, разведён, имеет срок за утопленный трактор и живет на поселении в пяти километрах от отцовского дома. Щетинист, лысоват, плохо выглядит.

Два брата-близнеца после тридцатилетней разлуки встречаются на родине, в глухом селе, на похоронах отца, который когда-то выгнал Валерия из дома. После похорон братья крепко выпивают, ссорятся и дерутся.

На утро по стечению обстоятельств они меняются местами: московский бизнесмен попадает на поселение, а его сельский брат-близнец отправляется в Москву. Эта рокировка влечет за собой перемены не только в них, но и в их ближайшем окружении.

Качество: WEB-DL 1080p
Формат: MKV
Видео кодек: AVC
Аудио кодек: AC3
Видео: AVC, 1920x1080, 25fps, 3242kbps
Аудио: AC-3, 48Khz, 2 ch, 192kbps
скриншот   скриншот   скриншот   скриншот   скриншот  

General
Unique ID : 187947147967344103270985438671296370948 (0x8D654DD477B639C0BFEFF0E8AC659904)
Complete name : D:\братья по обмену\Bratya.po.obmenu.(02.seriya.iz.10).2013.WEB-DL.(1080p).MediaClub.mkv
Format : Matroska
Format version : Version 2
File size : 1.11 GiB
Duration : 45 min 13 s
Overall bit rate : 3 504 kb/s
Movie name : Bratya.po.obmenu.(02.seriya.iz.10).2013.WEB-DL.(1080p).MediaClub
Encoded date : UTC 2014-09-12 08:53:31
Writing application : mkvmerge v5.8.0 ('No Sleep / Pillow') built on Sep 2 2012 15:37:04
Writing library : libebml v1.2.3 + libmatroska v1.3.0

Video
ID : 1
Format : AVC
Format/Info : Advanced Video Codec
Format profile : High@L4
Format settings, CABAC : Yes
Format settings, RefFrames : 2 frames
Codec ID : V_MPEG4/ISO/AVC
Duration : 45 min 13 s
Bit rate : 3 242 kb/s
Width : 1 920 pixels
Height : 1 080 pixels
Display aspect ratio : 16:9
Frame rate mode : Constant
Frame rate : 25.000 FPS
Color space : YUV
Chroma subsampling : 4:2:0
Bit depth : 8 bits
Scan type : Progressive
Bits/(Pixel*Frame) : 0.063
Stream size : 1.02 GiB (93%)
Default : Yes
Forced : Yes

Audio
ID : 2
Format : AC-3
Format/Info : Audio Coding 3
Format settings, Endianness : Big
Codec ID : A_AC3
Duration : 45 min 13 s
Bit rate mode : Constant
Bit rate : 192 kb/s
Channel(s) : 2 channels
Channel positions : Front: L R
Sampling rate : 48.0 kHz
Frame rate : 31.250 FPS (1536 SPF)
Bit depth : 16 bits
Compression mode : Lossy
Stream size : 62.1 MiB (5%)
Language : Russian
Service kind : Complete Main
Default : Yes
Forced : Yes

pb.wtf



Скачать Братья по обмену через торрент http://pic1.kartinco.top/images/11/whjg9.jpg Скачать фильм Братья по обмену через торрент бесплантно в хорошем качестве Описание: Валерий Перечихин — фигура большого масштаба, владелец крупной дорожно-строительной компании, консультант Общественного Совета ... 10 10 4
Торрент: Зарегистрирован [2017-11-26 06:20] · скачан: 39 раз
Статус: √ проверено
Размер: 10.92 GB
Как cкачать? Как скачать Братья по обмену через торрент | qTorrent

% Раздел Тема Автор DL S | L
Наши сериалы [ 20.05 GB ] Братья по обмену / Сезон: 1 / Серии: 1-10 из 10 [2013 HDTV 1080i] bober100 Скачать
1 | 0
Наши сериалы [ 5.27 GB ] Братья по обмену / 1-10 серии из 10 / [2013 SATRip] можено Скачать
1 | 0

28-11-2019 20:33  

Отключить всю рекламу на сайте

    Дорогой пользователь! Огромная просьба, поблагодарите релизера, оцените раздачу и оставьте свои комментарий, если Вы скачали Братья по обмену через торрент бесплатно! Внесите свою лепту в развитие PiratBit!
    Комментировать посты могут только пользователи прошедшие не сложную регистрацию
    Показать сообщения:    

    Братья по обмену через торрент
    Скачать бесплатно Братья по обмену
    Братья по обмену скачать торрент
    Братья по обмену смотреть онлайн
    Cкачать фильм Братья по обмену бесплатно
    Братья по обмену скачать торрент в хорошем качестве
    Братья по обмену смотреть онлайн бесплатно в хорошем качестве


    Вы не можете начинать темы
    Вы не можете отвечать на сообщения
    Вы не можете редактировать свои сообщения
    Вы не можете удалять свои сообщения
    Вы не можете голосовать в опросах
    Вы не можете прикреплять файлы к сообщениям
    Вы можете скачивать файлы