1 сезон

1 сезон

iTunes

1

КиноПоиск HD

Кинопоиск HD

iTunes

13

1 сезон

RePack

30

Новинка

ВАЖНО

ИГРА 18+

pack

RePack

MK11
pack

Легкие деньги

RePack

jed

RePack

fifa19

RePack

RDR2

RePack

NEED FOR SPEED™ PAYBACK

4 сезон

9 сезон

Бесстыжие 9 сезон

Все сериалы

все сериалы на PB.wtf

RePack

FAR CRY 5
  
Magnet ссылка

Звериная натура / Human Nature (Мишель Гондри) [2001 г., Драма, комедия, BDRip-AVC, Профессиональный (многоголосый)] от ExKinoRay pb.wtf

Звериная натура через торрент pb.wtf

Размер: 2.24 GB | Добавлен: 3 года 4 мес. назад | Торрент скачан:8 раз
Скачать  

26-11-2017 07:26 Звериная натура Скачать торрент  

Звериная натура / Human Nature
Год выпуска: 2001
Страна: Франция, США
Жанр: Драма, комедия
Продолжительность: 01:36:11
Перевод: Профессиональный (многоголосый)
Субтитры: Русские, английские

Режиссер: Мишель Гондри

Премьера в мире: 18 мая 2001

rating

В ролях: Патриция Аркетт, Рис Айфанс, Тим Роббинс, Кен Маги, Сай Ричардсон, Дэвид Варшофски, Хилари Дафф, Стэнли ДеСантис, Питер Динклэдж, Тоби Хасс

Описание: Лила страдает врожденным дефектом — у нее повышенная волосатость тела. Повышенная настолько, что даже в медицинской энциклопедии рядом с описанием этого феномена помещена ее фотография. Пытаясь найти себя, Лила долгое время жила в лесу и даже написала несколько книг о природе и месте человека в ней, но в жизни всегда настает момент, когда самке больше всего нужна пара. И пару Лила находит в профессоре Натане Бронфмане — педантичном зануде, изучающим проблему обучения мышей хорошим манерам. Но однажды на лесной прогулке они натыкаются на дикаря, воспитанного человеком, считавшим себя обезьяной. Натан видит в этом возможность проиллюстрировать свою теорию обучения существ, но самого Паффа, как он окрестил находку, никто не спросил, надо ли ему учиться.

Доп. информация: Навигация по главам: Есть

Качество: BDRip-AVC
Формат: MKV
Видео кодек: MPEG4
Аудио кодек: AC3
Видео: MPEG-4 AVC, 2500 Кбит/с, 1024x554, 23.976 кадра/сек
Аудио#1: Русский (AC3, 6 ch, 384 Кбит/с, 48 КГц)
Аудио#2: Английский (AC3, 6 ch, 448 Кбит/с, 48 КГц)
Релиз от:




raw [info]: 1024x554p 1:1 @ 24000/1001 fps (cfr)
x264 [info]: using SAR=1/1
x264 [info]: using cpu capabilities: MMX2 SSE2Fast LZCNT
x264 [info]: profile High, level 4.1
x264 [info]: frame I:1055 Avg QP:15.08 size: 85345
x264 [info]: frame P:30827 Avg QP:17.99 size: 28017
x264 [info]: frame B:106502 Avg QP:19.86 size: 7981
x264 [info]: consecutive B-frames: 2.5% 2.7% 6.4% 28.1% 16.5% 28.7% 6.1% 6.7% 1.0% 0.5% 0.2% 0.2% 0.1% 0.1% 0.0% 0.0% 0.1%
------
Общее
Уникальный идентификатор : 188322089121532876397878784180255707913 (0x8DAD83DB290F6F24807E8A9F2FF3D309)
Полное имя : D:\ExKinoRay\Human.Nature.2001.BDRip-AVC.ExKinoRay.mkv
Формат : Matroska
Версия формата : Version 2
Размер файла : 2,24 Гбайт
Продолжительность : 1 ч. 36 м.
Общий поток : 3334 Кбит/сек
Дата кодирования : UTC 2017-11-26 04:59:09
Программа кодирования : mkvmerge v7.8.0 ('River Man') 32bit built on Apr 3 2015 12:11:22
Библиотека кодирования : libebml v1.3.1 + libmatroska v1.4.2

Видео
Идентификатор : 1
Формат : AVC
Формат/Информация : Advanced Video Codec
Профиль формата : High@L4.1
Параметр CABAC формата : Да
Параметр ReFrames формата : 14 кадров
Идентификатор кодека : V_MPEG4/ISO/AVC
Продолжительность : 1 ч. 36 м.
Битрейт : 2500 Кбит/сек
Ширина : 1024 пикселя
Высота : 554 пикселя
Соотношение сторон : 1,85:1
Режим частоты кадров : Постоянный
Частота кадров : 23,976 (24000/1001) кадра/сек
Цветовое пространство : YUV
Субдискретизация насыщенности : 4:2:0
Битовая глубина : 8 бит
Тип развёртки : Прогрессивная
Бит/(Пиксели*Кадры) : 0.184
Размер потока : 1,64 Гбайт (73%)
Библиотека кодирования : x264 core 148 r2638 7599210
Настройки программы : cabac=1 / ref=14 / deblock=1:-3:-2 / analyse=0x3:0x113 / me=umh / subme=10 / psy=1 / psy_rd=1.00:0.10 / mixed_ref=1 / me_range=32 / chroma_me=1 / trellis=2 / 8x8dct=1 / cqm=0 / deadzone=21,11 / fast_pskip=0 / chroma_qp_offset=-3 / threads=4 / lookahead_threads=1 / sliced_threads=0 / nr=0 / decimate=0 / interlaced=0 / bluray_compat=0 / constrained_intra=0 / bframes=16 / b_pyramid=2 / b_adapt=2 / b_bias=0 / direct=3 / weightb=1 / open_gop=0 / weightp=2 / keyint=250 / keyint_min=23 / scenecut=40 / intra_refresh=0 / rc=2pass / mbtree=0 / bitrate=2500 / ratetol=1.0 / qcomp=0.60 / qpmin=0 / qpmax=69 / qpstep=4 / cplxblur=20.0 / qblur=0.5 / ip_ratio=1.40 / pb_ratio=1.30 / aq=3:1.00
Default : Да
Forced : Нет
Цветовой диапазон : Limited
Основные цвета : BT.709
Характеристики трансфера : BT.709
Коэффициенты матрицы : BT.709

Аудио #1
Идентификатор : 2
Формат : AC-3
Формат/Информация : Audio Coding 3
Расширение режима : CM (complete main)
Параметр Endianness формата : Big
Идентификатор кодека : A_AC3
Продолжительность : 1 ч. 36 м.
Вид битрейта : Постоянный
Битрейт : 384 Кбит/сек
Каналы : 6 каналов
Расположение каналов : Front: L C R, Side: L R, LFE
Частота : 48,0 КГц
Частота кадров : 31,250 кадров/сек (1536 spf)
Метод сжатия : С потерями
Размер потока : 264 Мбайт (12%)
Язык : Russian
Default : Да
Forced : Нет

Аудио #2
Идентификатор : 3
Формат : AC-3
Формат/Информация : Audio Coding 3
Расширение режима : CM (complete main)
Параметр Endianness формата : Big
Идентификатор кодека : A_AC3
Продолжительность : 1 ч. 36 м.
Вид битрейта : Постоянный
Битрейт : 448 Кбит/сек
Каналы : 6 каналов
Расположение каналов : Front: L C R, Side: L R, LFE
Частота : 48,0 КГц
Частота кадров : 31,250 кадров/сек (1536 spf)
Метод сжатия : С потерями
Размер потока : 308 Мбайт (13%)
Язык : English
Default : Нет
Forced : Нет

Текст #1
Идентификатор : 4
Формат : UTF-8
Идентификатор кодека : S_TEXT/UTF8
Идентификатор кодека/Информация : UTF-8 Plain Text
Язык : Russian
Default : Да
Forced : Нет

Текст #2
Идентификатор : 5
Формат : UTF-8
Идентификатор кодека : S_TEXT/UTF8
Идентификатор кодека/Информация : UTF-8 Plain Text
Язык : English
Default : Нет
Forced : Нет

Меню
00:00:00.000 : :Chapter 01
00:03:23.244 : :Chapter 02
00:09:19.267 : :Chapter 03
00:16:07.800 : :Chapter 04
00:20:18.383 : :Chapter 05
00:25:40.830 : :Chapter 06
00:30:44.133 : :Chapter 07
00:36:45.703 : :Chapter 08
00:42:45.229 : :Chapter 09
00:46:37.211 : :Chapter 10
00:52:27.894 : :Chapter 11
00:57:57.056 : :Chapter 12
01:02:28.870 : :Chapter 13
01:08:04.663 : :Chapter 14
01:13:01.668 : :Chapter 15
01:17:50.415 : :Chapter 16
01:24:34.069 : :Chapter 17
01:28:56.330 : :Chapter 18

pb.wtf



Скачать Звериная натура через торрент http://s018.radikal.ru/i519/1711/04/3cfab1e437b0.jpg Скачать фильм Звериная натура через торрент бесплантно в хорошем качестве Описание: Лила страдает врожденным дефектом — у нее повышенная волосатость тела. Повышенная настолько, что даже в медицинской энциклопедии ... 10 10 1
Info! Золотая раздача, скачанное не засчитывается.
Торрент: Зарегистрирован [2017-11-26 07:26] · скачан: 8 раз
Статус: √ проверено
Размер: 2.24 GB
Как cкачать? Как скачать Звериная натура через торрент | UTorrent

28-11-2019 20:33  

Отключить всю рекламу на сайте

26-11-2017 07:27 Звериная натура Скачать торрент  

Топик был перенесен из форума Оформление раздач (Кино, Видео и ТВ) в форум Фильмы 2001-2005


schultzpb.wtf



26-11-2017 07:32 Звериная натура Скачать торрент  

dumbia, 2.4 На обложке не должно быть упоминания сторонних интернет ресурсов
Правила раздела Фильмы. Как правильно оформить раздачу фильма pb.wtf



    Дорогой пользователь! Огромная просьба, поблагодарите релизера, оцените раздачу и оставьте свои комментарий, если Вы скачали Звериная натура через торрент бесплатно! Внесите свою лепту в развитие PiratBit!
    Комментировать посты могут только пользователи прошедшие не сложную регистрацию
    Показать сообщения:    

    Звериная натура через торрент
    Скачать бесплатно Звериная натура
    Звериная натура скачать торрент
    Звериная натура смотреть онлайн
    Cкачать фильм Звериная натура бесплатно
    Звериная натура скачать торрент в хорошем качестве
    Звериная натура смотреть онлайн бесплатно в хорошем качестве


    Вы не можете начинать темы
    Вы не можете отвечать на сообщения
    Вы не можете редактировать свои сообщения
    Вы не можете удалять свои сообщения
    Вы не можете голосовать в опросах
    Вы не можете прикреплять файлы к сообщениям
    Вы можете скачивать файлы