Ссылка на приватное зеркало нашего сайта всего за 1$. Внимание количество ограничено!!!

2 сезон

iTunes

1 сезон

1

iTunes

iTunes

iTunes

1 сезон

RePack

30

ИГРА 18+

pack

ВАЖНО

!!Акция!!

Alien_RageХит недели

RePack

MK11
pack

Забери бонус

RePack

jed

!!Акция!!

Alien_Rage

RePack

fifa19

RePack

Assassins Creed: Odyssey

RePack

NEED FOR SPEED™ PAYBACK

4 сезон

9 сезон

Бесстыжие 9 сезон

Все сериалы

все сериалы на PB.wtf

RePack

FAR CRY 5
  

Приветствие Джаггера / The Blood of Heroes (Дэвид Уэбб Пиплз) [1989, фантастика, боевик, спорт, BDRip 1080p by msltel] MVO, 2 x AVO pb.wtf

Приветствие Джаггера через торрент pb.wtf

Размер: 9.86 GB | Добавлен: 2 года 11 мес. назад | Торрент скачан:20 раз
Скачать  

26-11-2017 07:44 Приветствие Джаггера Скачать торрент  

Название: Приветствие Джаггера
Оригинальное название: The Blood of Heroes
Год выпуска: 1989
Страна: Австралия, США
Жанр: фантастика, боевик, спорт
Продолжительность: 01:27:20
Перевод: профессиональный многоголосый, авторский

Режиссер: Дэвид Уэбб Пиплз
В ролях: Рутгер Хауэр, Ричард Нортон, Делрой Линдо, Анна Катарина, Винсент Д`Онофрио, Ганди МакИнтайр, Джастин Монжо, Аарон Мартин, Джоан Чен, Кэйси Хуанг, Нгуен Дин, Джон Биро, Брайан Коули, Джино Терранова, Сесилия Вонг, Джон Самаха, Макс Фэйрчайлд, Хью Кияс-Бёрн, Бейзил Кларк, Дэйл Браун, Даг Милинг, Ли Райс, Крис Питерс, Грег Джордан, Джеймс Уэбб, Стив Рэкмен, Дон Вон, Стефен Стаубер, Керрин Джексон Хайминг, Рик Адамс, Джефф Дженсен, Марк Уоррен, Гай Норрис, Артур Спинкс, Сунил Де Сильвер, Тревор Фрост, Гарри Харман

О фильме: Действие фильма разворачивается в следующем столетии после опустошительной войны. Единственным развлечением выживших после ядерной катастрофы людей стали жестокие соревнования — нечто среднее между рыцарскими турнирами и боями гладиаторов. Команда беспощадного Рутгера Хауэра рвется в высшую лигу, где выигрыш, на самом деле, является вопросом жизни и смерти...



Качество: BDRip 1080p
Формат: MKV
Видео: MPEG-4 AVC, 12.5 Mбит/с, 1400x1072
Аудио 1: русский, AC3, 448 kbps, 6 ch [профессиональный многоголосый]
Аудио 2: русский, DTS, 1509 kbps, 2 ch [авторский, Дмитрий Есарев]
Аудио 3: русский, AC3, 192 kbps, 2 ch [авторский, Александр Марченко]
Аудио 4: английский, DTS, 1509 kbps, 2 ch, 48 kHz [оригинал]
Субтитры: английские
Общее
Уникальный идентификатор : 207856901228740158385718431222480302897 (0x9C5FC87427E3747A8D165BA95BA0F331)
Полное имя : D:\Video\Приветствие Джаггера.1989.BDRip.1080p by msltel.mkv
Формат : Matroska
Версия формата : Version 4 / Version 2
Размер файла : 9,86 Гбайт
Продолжительность : 1 ч. 27 м.
Общий поток : 16,2 Мбит/сек
Название фильма : Rip by msltel
Дата кодирования : UTC 2017-11-25 12:24:42
Программа кодирования : mkvmerge v8.2.0 ('World of Adventure') 64bit
Библиотека кодирования : libebml v1.3.1 + libmatroska v1.4.2

Видео
Идентификатор : 1
Формат : AVC
Формат/Информация : Advanced Video Codec
Профиль формата : High@L4.1
Настройки формата : CABAC / 4 Ref Frames
Параметр CABAC формата : Да
Параметр RefFrames формата : 4 кадра
Идентификатор кодека : V_MPEG4/ISO/AVC
Продолжительность : 1 ч. 27 м.
Битрейт : 12,5 Мбит/сек
Ширина : 1400 пикселей
Высота : 1072 пикселя
Соотношение сторон : 4:3
Режим частоты кадров : Постоянный
Частота кадров : 25,000 кадров/сек
Цветовое пространство : YUV
Субдискретизация насыщенности : 4:2:0
Битовая глубина : 8 бит
Тип развёртки : Прогрессивная
Бит/(Пиксели*Кадры) : 0.333
Размер потока : 7,63 Гбайт (77%)
Библиотека кодирования : x264 core 146 r2538 121396c
Настройки программы : cabac=1 / ref=4 / deblock=1:-3:-2 / analyse=0x3:0x113 / me=umh / subme=11 / psy=1 / psy_rd=1.00:0.15 / mixed_ref=1 / me_range=32 / chroma_me=1 / trellis=2 / 8x8dct=1 / cqm=0 / deadzone=21,11 / fast_pskip=0 / chroma_qp_offset=-3 / threads=6 / lookahead_threads=1 / sliced_threads=0 / nr=0 / decimate=1 / interlaced=0 / bluray_compat=0 / constrained_intra=0 / bframes=7 / b_pyramid=2 / b_adapt=2 / b_bias=0 / direct=1 / weightb=1 / open_gop=0 / weightp=2 / keyint=250 / keyint_min=25 / scenecut=40 / intra_refresh=0 / rc_lookahead=40 / rc=crf / mbtree=0 / crf=18.3 / qcomp=0.60 / qpmin=0 / qpmax=69 / qpstep=4 / vbv_maxrate=62500 / vbv_bufsize=78125 / crf_max=0.0 / nal_hrd=none / filler=0 / ip_ratio=1.40 / pb_ratio=1.30 / aq=1:1.00
Язык : English
Default : Да
Forced : Нет

Аудио #1
Идентификатор : 2
Формат : AC-3
Формат/Информация : Audio Coding 3
Идентификатор кодека : A_AC3
Продолжительность : 1 ч. 27 м.
Вид битрейта : Постоянный
Битрейт : 448 Кбит/сек
Каналы : 6 каналов
Расположение каналов : Front: L C R, Side: L R, LFE
Частота : 48,0 КГц
Частота кадров : 31,250 кадров/сек (1536 SPF)
Битовая глубина : 16 бит
Метод сжатия : С потерями
Размер потока : 280 Мбайт (3%)
Заголовок : MVO
Язык : Russian
ServiceKind/String : Complete Main
Default : Да
Forced : Нет

Аудио #2
Идентификатор : 3
Формат : DTS
Формат/Информация : Digital Theater Systems
Идентификатор кодека : A_DTS
Продолжительность : 1 ч. 27 м.
Вид битрейта : Постоянный
Битрейт : 1509 Кбит/сек
Каналы : 2 канала
Расположение каналов : Front: L R
Частота : 48,0 КГц
Частота кадров : 93,750 кадра/сек (512 SPF)
Битовая глубина : 16 бит
Метод сжатия : С потерями
Размер потока : 943 Мбайт (9%)
Заголовок : Дмитрий Есарев
Язык : Russian
Default : Нет
Forced : Нет

Аудио #3
Идентификатор : 4
Формат : AC-3
Формат/Информация : Audio Coding 3
Идентификатор кодека : A_AC3
Продолжительность : 1 ч. 27 м.
Вид битрейта : Постоянный
Битрейт : 192 Кбит/сек
Каналы : 2 канала
Расположение каналов : Front: L R
Частота : 48,0 КГц
Частота кадров : 31,250 кадров/сек (1536 SPF)
Битовая глубина : 16 бит
Метод сжатия : С потерями
Размер потока : 120 Мбайт (1%)
Заголовок : Александр Марченко
Язык : Russian
ServiceKind/String : Complete Main
Default : Нет
Forced : Нет

Аудио #4
Идентификатор : 5
Формат : DTS
Формат/Информация : Digital Theater Systems
Идентификатор кодека : A_DTS
Продолжительность : 1 ч. 27 м.
Вид битрейта : Постоянный
Битрейт : 1509 Кбит/сек
Каналы : 2 канала
Расположение каналов : Front: L R
Частота : 48,0 КГц
Частота кадров : 93,750 кадра/сек (512 SPF)
Битовая глубина : 24 бит
Метод сжатия : С потерями
Размер потока : 943 Мбайт (9%)
Заголовок : original
Язык : English
Default : Нет
Forced : Нет

Текст
Идентификатор : 6
Формат : UTF-8
Идентификатор кодека : S_TEXT/UTF8
Идентификатор кодека/Информация : UTF-8 Plain Text
Продолжительность : 1 ч. 21 м.
Битрейт : 18 бит/сек
ElementCount : 472
Размер потока : 11,1 Кбайт (0%)
Заголовок : английские
Язык : English
Default : Нет
Forced : Нет
pb.wtf



Скачать Приветствие Джаггера через торрент http://i062.radikal.ru/1711/39/8c274c562a53.jpg Скачать фильм Приветствие Джаггера через торрент бесплантно в хорошем качестве О фильме: Действие фильма разворачивается в следующем столетии после опустошительной войны. Единственным развлечением выживших после ... 10 10 2
Info! Золотая раздача, скачанное не засчитывается.
Торрент: Зарегистрирован [2017-11-26 07:44] · скачан: 20 раз
Статус: √ проверено
Размер: 9.86 GB
Как cкачать? Как скачать Приветствие Джаггера через торрент | qTorrent

% Раздел Тема Автор DL S | L
Фильмы [HD 720p, 1080p] (Хороший звук DUB, MVO) [ 3.69 GB ] Приветствие Джаггера / The Blood of Heroes [1989 BDRip 720p by msltel] MVO 2 x AVO msltel Скачать
1 | 0

28-11-2019 20:33  

Отключить всю рекламу на сайте

    Дорогой пользователь! Огромная просьба, поблагодарите релизера, оцените раздачу и оставьте свои комментарий, если Вы скачали Приветствие Джаггера через торрент бесплатно! Внесите свою лепту в развитие PiratBit!
    Комментировать посты могут только пользователи прошедшие не сложную регистрацию
    Показать сообщения:    

    Приветствие Джаггера через торрент
    Скачать бесплатно Приветствие Джаггера
    Приветствие Джаггера скачать торрент
    Приветствие Джаггера смотреть онлайн
    Cкачать фильм Приветствие Джаггера бесплатно
    Приветствие Джаггера скачать торрент в хорошем качестве
    Приветствие Джаггера смотреть онлайн бесплатно в хорошем качестве


    Вы не можете начинать темы
    Вы не можете отвечать на сообщения
    Вы не можете редактировать свои сообщения
    Вы не можете удалять свои сообщения
    Вы не можете голосовать в опросах
    Вы не можете прикреплять файлы к сообщениям
    Вы можете скачивать файлы