Ссылка на приватное зеркало нашего сайта всего за 1$. Внимание количество ограничено!!!

2 сезон

iTunes

1 сезон

1

iTunes

iTunes

iTunes

1 сезон

RePack

30

ИГРА 18+

pack

ВАЖНО

!!Акция!!

Alien_RageХит недели

RePack

MK11
pack

Забери бонус

RePack

jed

!!Акция!!

Alien_Rage

RePack

fifa19

RePack

Assassins Creed: Odyssey

RePack

NEED FOR SPEED™ PAYBACK

4 сезон

9 сезон

Бесстыжие 9 сезон

Все сериалы

все сериалы на PB.wtf

RePack

FAR CRY 5
  

Привет от аиста / Серия 1-4 из 4 / (Глеб Якубовский) [2017 г., Мелодрама, SATRip] pb.wtf

Привет от аиста через торрент pb.wtf

Размер: 2.49 GB | Добавлен: 2 года 11 мес. назад | Торрент скачан:145 раз
Скачать  

26-11-2017 07:46 Привет от аиста Скачать торрент  

Привет от аиста / Серия 1-4 из 4 /
Год выпуска: 2017
Страна: Россия
Жанр: Мелодрама
Продолжительность: 4х~00:44:00
Субтитры: Нет

Режиссер: Глеб Якубовский

В ролях: Екатерина Астахова, Артём Григорьев, Инна Коляда, Евгений Казакевич, Юлианна Михневич

Описание: Узнав о том, что его жена Юля (Екатерина Астахова) ждет ребенка, Антон (Евгений Казакевич) требует от нее сделать аборт, в противном случае он уйдет он нее. Ребенок не входит в его планы. Юля расстается с мужем и решает рожать.
В роддеме Юля оказывается в одной палате с Леной (Инна Коляда) — избалованной девушкой из богатой семьи, которая замужем за простым врачом Дмитрием (Артем Григорьев). Муж не способен обеспечивать все ее потребности. В итоге, Лена сбегает, оставив Дмитрию новорожденную дочь. Юля и Дмитрий в полной растерянности — они остались один на один со своими проблемами. Нужно и зарабатывать, и нянчить детей. Они решают, что им обоим будет легче справляться с детьми, если они будут вместе — будут нянями для своих детей по очереди. Юля принимает предложение, и вскоре понимает, что испытывает чувства к Дмитрию. Когда ей начинает казаться, что это взаимно, она узнает, что Дмитрий видит в ней только удобную помощницу...

Качество: SATRip
Формат: AVI
Видео кодек: XviD
Аудио кодек: MP3
Видео: 720x400 (1.80:1), 25 fps, XviD build 50 ~1800 kbps
Аудио#1: 48 kHz, MPEG Layer 3, 2 ch, ~192 kbps avg
скриншот   скриншот   скриншот   скриншот  

General
Complete name : H:\релизы.торрентфайл\Privet.Ot.Aista.SATRip.[riperam.org]\Privet.Ot.Aista.02.SATRip.[riperam.org].avi
Format : AVI
Format/Info : Audio Video Interleave
File size : 626 MiB
Duration : 43mn 42s
Overall bit rate : 2 002 Kbps
Writing application : VirtualDubMod 1.5.10.3 | www.virtualdub-fr.org || (build 2550/release)
Writing library : VirtualDubMod build 2550/release

Video
ID : 0
Format : MPEG-4 Visual
Format profile : Advanced Simple@L5
Format settings, BVOP : 2
Format settings, QPel : No
Format settings, GMC : No warppoints
Format settings, Matrix : Default (H.263)
Codec ID : XVID
Codec ID/Hint : XviD
Duration : 43mn 42s
Bit rate : 1 800 Kbps
Width : 720 pixels
Height : 400 pixels
Display aspect ratio : 16:9
Frame rate : 25.000 fps
Color space : YUV
Chroma subsampling : 4:2:0
Bit depth : 8 bits
Scan type : Progressive
Compression mode : Lossy
Bits/(Pixel*Frame) : 0.250
Stream size : 563 MiB (90%)
Writing library : XviD 1.2.1 (UTC 2008-12-04)

Audio
ID : 1
Format : AC-3
Format/Info : Audio Coding 3
Mode extension : CM (complete main)
Format settings, Endianness : Big
Codec ID : 2000
Duration : 43mn 42s
Bit rate mode : Constant
Bit rate : 192 Kbps
Channel(s) : 2 channels
Channel positions : Front: L R
Sampling rate : 48.0 KHz
Bit depth : 16 bits
Compression mode : Lossy
Stream size : 60.0 MiB (10%)
Alignment : Split accross interleaves
Interleave, duration : 40 ms (1.00 video frame)
Interleave, preload duration : 500 ms

pb.wtf



Скачать Привет от аиста через торрент http://pic1.kartinco.top/images/11/d2vid.jpg Скачать фильм Привет от аиста через торрент бесплантно в хорошем качестве Описание: Узнав о том, что его жена Юля (Екатерина Астахова) ждет ребенка, Антон (Евгений Казакевич) требует от нее сделать аборт, в ... 10 10 2
Торрент: Зарегистрирован [2017-11-26 07:46] · скачан: 145 раз
Статус: √ проверено
Размер: 2.49 GB
Как cкачать? Как скачать Привет от аиста через торрент | qTorrent

28-11-2019 20:33  

Отключить всю рекламу на сайте

    Дорогой пользователь! Огромная просьба, поблагодарите релизера, оцените раздачу и оставьте свои комментарий, если Вы скачали Привет от аиста через торрент бесплатно! Внесите свою лепту в развитие PiratBit!
    Комментировать посты могут только пользователи прошедшие не сложную регистрацию
    Показать сообщения:    

    Привет от аиста через торрент
    Скачать бесплатно Привет от аиста
    Привет от аиста скачать торрент
    Привет от аиста смотреть онлайн
    Cкачать фильм Привет от аиста бесплатно
    Привет от аиста скачать торрент в хорошем качестве
    Привет от аиста смотреть онлайн бесплатно в хорошем качестве


    Вы не можете начинать темы
    Вы не можете отвечать на сообщения
    Вы не можете редактировать свои сообщения
    Вы не можете удалять свои сообщения
    Вы не можете голосовать в опросах
    Вы не можете прикреплять файлы к сообщениям
    Вы можете скачивать файлы