Ссылка на приватное зеркало нашего сайта всего за 1$. Внимание количество ограничено!!!

2 сезон

iTunes

1 сезон

1

iTunes

iTunes

iTunes

1 сезон

RePack

30

ИГРА 18+

pack

ВАЖНО

!!Акция!!

Alien_RageХит недели

RePack

MK11
pack

Забери бонус

RePack

jed

!!Акция!!

Alien_Rage

RePack

fifa19

RePack

Assassins Creed: Odyssey

RePack

NEED FOR SPEED™ PAYBACK

4 сезон

9 сезон

Бесстыжие 9 сезон

Все сериалы

все сериалы на PB.wtf

RePack

FAR CRY 5
  

3 женщины / 3 Women (Роберт Олтмен) [1977, триллер, драма, детектив, BDRip 1080p от еnvy / NNNB] MVO, DVO, AVO pb.wtf

3 женщины через торрент pb.wtf

Размер: 8.73 GB | Добавлен: 2 года 10 мес. назад | Торрент скачан:27 раз
Скачать  

26-11-2017 09:21 3 женщины Скачать торрент  

Информация о фильме
Русское название: Из прошлого
Оригинальное название: Out of the Past
Год выхода: 1977
Жанр: триллер, драма, детектив
Режиссер: Роберт Олтмен
Выпущено: США
Продолжительность: 01:36:46
Перевод: Профессиональный (многоголосый, закадровый), Профессиональный (двухголосый, закадровый), Авторский (одноголосый, закадровый)
В ролях: Шелли Дювалл, Сисси Спейсек, Дженис Рул, Роберт Фортье, Рут Нельсон, Джон Кромуэлл, Сьерра Пешёр, Крэйг Ричард Нельсон, Мэйзи Хой, Белита Морено

Описание:
Пинки Роуз, наивная молодая женщина, приезжает в коммуну в Калифорнийской пустыне, но скоро сбегает оттуда вместе с Милли Ламморо, которая тоже родом из Техаса и работала вместе с ней в медицинском учреждении. Милли, осознающая, что в мире есть такое понятие, как мода, живет в квартирном комплексе для одиноких и проводит вечера в баре для мотоциклистов. Пинки переезжает к Милли и заводит дружбу с Уилли, молчаливой, беременной женой Эдгара, которому принадлежит комплекс.

Файл
Качество: BDRip 1080p (исходник Blu-Ray Disc Remux 1080p)
Контейнер: MKV (расширение файла)
Видео: 1916x814, 9314 Кбит/сек, 23,976 кадр/сек, AVC, x264, High@L4.1, 2.35:1, 0.249 Бит/[Пиксели*Кадры]
Аудио 1: AC-3, 192 Кбит/сек, 2 канала(ов), 48,0 КГц - Многоголосый закадровый, ОРТ / Русский
Аудио 2: AC-3, 192 Кбит/сек, 2 канала(ов), 48,0 КГц - Двухголосый закадровый, NLS / Русский
Аудио 3: AC-3, 192 Кбит/сек, 1 канала(ов), 48,0 КГц - Одноголосый закадровый, Ю. Сербин / Русский
Аудио 4: AC-3, 192 Кбит/сек, 1 канала(ов), 48,0 КГц - Оригинал / Английский
Субтитры: Русские | Полные, Английские | Полные
Форсированные субтитры: Нет
Чаптеры (Главы): Есть



Автор Рипа: Группа:
Format : Matroska
Format version : Version 2
File size : 8.73 GiB
Duration : 2 h 3 min
Overall bit rate : 10.1 Mb/s
Movie name : 3 Women.(1977).BDRip.1080p.[envy]
Encoded date : UTC 2017-11-25 18:19:11
Writing application : mkvmerge v5.8.0 ('No Sleep / Pillow') built on Sep 2 2012 15:37:04
Writing library : libebml v1.2.3 + libmatroska v1.3.0

Video
ID : 1
Format : AVC
Format/Info : Advanced Video Codec
Format profile : High@L4.1
Format settings : CABAC / 5 Ref Frames
Format settings, CABAC : Yes
Format settings, ReFrames : 5 frames
Codec ID : V_MPEG4/ISO/AVC
Duration : 2 h 3 min
Bit rate : 9 314 kb/s
Width : 1 916 pixels
Height : 814 pixels
Display aspect ratio : 2.35:1
Frame rate mode : Constant
Frame rate : 23.976 (24000/1001) FPS
Color space : YUV
Chroma subsampling : 4:2:0
Bit depth : 8 bits
Scan type : Progressive
Bits/(Pixel*Frame) : 0.249
Stream size : 7.89 GiB (90%)
Title : 3 Women.(1977).BDRip.1080p.[envy]
Writing library : x264 core 152 r2851 ba24899
Encoding settings : cabac=1 / ref=5 / deblock=1:-3:-3 / analyse=0x3:0x113 / me=umh / subme=11 / psy=1 / psy_rd=1.00:0.00 / mixed_ref=1 / me_range=32 / chroma_me=1 / trellis=2 / 8x8dct=1 / cqm=0 / deadzone=21,11 / fast_pskip=0 / chroma_qp_offset=-2 / threads=12 / lookahead_threads=1 / sliced_threads=0 / nr=0 / decimate=1 / interlaced=0 / bluray_compat=0 / constrained_intra=0 / bframes=5 / b_pyramid=2 / b_adapt=2 / b_bias=0 / direct=3 / weightb=1 / open_gop=0 / weightp=2 / keyint=240 / keyint_min=23 / scenecut=40 / intra_refresh=0 / rc=2pass / mbtree=0 / bitrate=9314 / ratetol=1.0 / qcomp=0.60 / qpmin=0 / qpmax=69 / qpstep=4 / cplxblur=20.0 / qblur=0.5 / ip_ratio=1.40 / pb_ratio=1.30 / aq=1:0.70
Language : English
Default : Yes
Forced : No

Audio #1
ID : 2
Format : AC-3
Format/Info : Audio Coding 3
Codec ID : A_AC3
Duration : 2 h 3 min
Bit rate mode : Constant
Bit rate : 192 kb/s
Channel(s) : 2 channels
Channel positions : Front: L R
Sampling rate : 48.0 kHz
Frame rate : 31.250 FPS (1536 SPF)
Bit depth : 16 bits
Compression mode : Lossy
Stream size : 170 MiB (2%)
Title : MVO Первый канал
Language : Russian
Service kind : Complete Main
Default : Yes
Forced : No

Audio #2
ID : 3
Format : AC-3
Format/Info : Audio Coding 3
Codec ID : A_AC3
Duration : 2 h 3 min
Bit rate mode : Constant
Bit rate : 192 kb/s
Channel(s) : 2 channels
Channel positions : Front: L R
Sampling rate : 48.0 kHz
Frame rate : 31.250 FPS (1536 SPF)
Bit depth : 16 bits
Compression mode : Lossy
Stream size : 170 MiB (2%)
Title : DVO NLS
Language : Russian
Service kind : Complete Main
Default : No
Forced : No

Audio #3
ID : 4
Format : AC-3
Format/Info : Audio Coding 3
Codec ID : A_AC3
Duration : 2 h 3 min
Bit rate mode : Constant
Bit rate : 192 kb/s
Channel(s) : 1 channel
Channel positions : Front: C
Sampling rate : 48.0 kHz
Frame rate : 31.250 FPS (1536 SPF)
Bit depth : 16 bits
Compression mode : Lossy
Stream size : 170 MiB (2%)
Title : AVO Ю. Сербин
Language : Russian
Service kind : Complete Main
Default : No
Forced : No

Audio #4
ID : 5
Format : AC-3
Format/Info : Audio Coding 3
Codec ID : A_AC3
Duration : 2 h 3 min
Bit rate mode : Constant
Bit rate : 192 kb/s
Channel(s) : 1 channel
Channel positions : Front: C
Sampling rate : 48.0 kHz
Frame rate : 31.250 FPS (1536 SPF)
Bit depth : 16 bits
Compression mode : Lossy
Stream size : 170 MiB (2%)
Title : Eng
Language : English
Service kind : Complete Main
Default : No
Forced : No

Text #1
ID : 6
Format : UTF-8
Codec ID : S_TEXT/UTF8
Codec ID/Info : UTF-8 Plain Text
Title : Rus full
Language : Russian
Default : No
Forced : No

Text #2
ID : 7
Format : UTF-8
Codec ID : S_TEXT/UTF8
Codec ID/Info : UTF-8 Plain Text
Title : Eng full
Language : English
Default : No
Forced : No

Menu
00:00:00.000 : :Chapter 01
00:02:30.107 : :Chapter 02
00:13:54.124 : :Chapter 03
00:17:39.141 : :Chapter 04
00:21:22.656 : :Chapter 05
00:27:20.096 : :Chapter 06
00:35:49.063 : :Chapter 07
00:47:41.190 : :Chapter 08
00:51:59.783 : :Chapter 09
00:57:44.711 : :Chapter 10
01:05:35.055 : :Chapter 11
01:15:09.838 : :Chapter 12
01:24:38.031 : :Chapter 13
01:29:06.174 : :Chapter 14
01:33:26.642 : :Chapter 15
01:39:04.313 : :Chapter 16
01:48:51.733 : :Chapter 17
01:57:02.265 : :Chapter 18
pb.wtf



Скачать 3 женщины через торрент http://img12.lostpic.net/2017/11/26/7ff48cbe868051a87cc556184444f23d.png Скачать фильм 3 женщины через торрент бесплантно в хорошем качестве Описание:Пинки Роуз, наивная молодая женщина, приезжает в коммуну в Калифорнийской пустыне, но скоро сбегает оттуда вместе с Милли Ламморо, ... 1.5 10 2
Info! Золотая раздача, скачанное не засчитывается.
Торрент: Зарегистрирован [2017-11-26 09:27] · скачан: 27 раз
Статус: √ проверено
Размер: 8.73 GB
Как cкачать? Как скачать 3 женщины через торрент | qTorrent

% Раздел Тема Автор DL S | L
Фильмы [HD 720p, 1080p] (Хороший звук DUB, MVO) [ 14.78 GB ] Маленькие женщины / Little Women [1994 BDRip 1080p by msltel] 3 x MVO DVO AVO msltel Скачать
1 | 0
Фильмы [HD 720p, 1080p] (Хороший звук DUB, MVO) [ 6.17 GB ] Маленькие женщины / Little Women [1994 BDRip 720p by msltel] 3 x MVO DVO AVO msltel Скачать
1 | 0
Фильмы [HD 720p, 1080p] (Хороший звук DUB, MVO) [ 17.52 GB ] Чего хотят женщины / What Women Want [2000 BDRip 1080p by msltel] DUB MVO 3 x AVO msltel Скачать
1 | 0
Фильмы [HD 720p, 1080p] (Хороший звук DUB, MVO) [ 7.05 GB ] Чего хотят женщины / What Women Want [2000 BDRip 720p by msltel] DUB MVO 3 x AVO msltel Скачать
1 | 0


Последний раз редактировалось: еnvy (2017-11-26 10:00), всего редактировалось 1 раз

28-11-2019 20:33  

Отключить всю рекламу на сайте

26-11-2017 09:47 3 женщины Скачать торрент  

- Оформление проще. (Долго грузится или вообще не прогружается страница)
- Сравнения с исходником не будет. (Не загружается сайт с картинками)
- На раздаче всегда до 5 скачавших, дальше сами. (Нет долгой возможность быть на раздаче) (Все файлы есть на HDD)
По всем вопросам в ЛС или ЧАТ.
Связано с новыми законами. Очень сложно попасть на трекеры.pb.wtf



    Дорогой пользователь! Огромная просьба, поблагодарите релизера, оцените раздачу и оставьте свои комментарий, если Вы скачали 3 женщины через торрент бесплатно! Внесите свою лепту в развитие PiratBit!
    Комментировать посты могут только пользователи прошедшие не сложную регистрацию
    Показать сообщения:    

    3 женщины через торрент
    Скачать бесплатно 3 женщины
    3 женщины скачать торрент
    3 женщины смотреть онлайн
    Cкачать фильм 3 женщины бесплатно
    3 женщины скачать торрент в хорошем качестве
    3 женщины смотреть онлайн бесплатно в хорошем качестве


    Вы не можете начинать темы
    Вы не можете отвечать на сообщения
    Вы не можете редактировать свои сообщения
    Вы не можете удалять свои сообщения
    Вы не можете голосовать в опросах
    Вы не можете прикреплять файлы к сообщениям
    Вы можете скачивать файлы