MEGA NEWS Получи личный уникальный адрес сайта и защити себя от блокировок. Внимание количество ограничено!!!

iTunes

1+1

iTunes

мы

iTunes

1

iTunes

Чернобыль

iTunes

Ральф против интернета

Лицензия

ПШазам

Лицензия

Игра престолов

Лицензия

30
pack

ВАЖНО

!!Акция!!

Alien_RageХит недели

RePack

Resident Evil 21

ИГРА 18+

pack

RePack

Metro:Exodus

!!Акция!!

Alien_Rage

RePack

fifa19

RePack

Assassins Creed: Odyssey

RePack

NEED FOR SPEED™ PAYBACK

3 сезон

9 сезон

Бесстыжие 9 сезон

Все сериалы

все сериалы на PB.wtf

RePack

FAR CRY 5
Ребята, катастрофически не хватает 1900р. для оплаты серверов за АВГУСТ (всвязи с блокировками трафик упал в 3 раза), 1-2р., выручайте.
  

Боксер / The Boxer (Джим Шеридан) [1997 г, драма, мелодрама, спорт, HDRip] MVO, DVO pb.wtf

Боксер через торрент pb.wtf

Размер: 1.45 GB | Добавлен: 1 год 10 мес. назад | Торрент скачан:36 раз
Скачать  

26-11-2017 12:56 Боксер Скачать торрент  

Боксер / The Boxer
Год выпуска: 1997
Страна: США, Ирландия
Жанр: драма, мелодрама, спорт
Продолжительность: 01:53:36
Перевод: Профессиональный многоголосый, профессиональный двухголосый

Режиссер: Джим Шеридан

rating

В ролях: Дэниэл Дэй-Льюис, Эмили Уотсон, Дара Доннелли, Фрэнк Кохлан, Шон Кернс, Лоррэйн Пилкингтон, Ниал Шэнэхэн, Джон Уолл, Мария МакДермоттроу, Кэрол Скэнлэн, Кейт Перри

Описание: После четырнадцати лет, проведенных в тюрьме, боксер Дэнни Флинн возвращается в неспокойный Белфаст к своей давней пассии Мэгги, которая уже стала женой другого заключенного и растит одна сына-тинэйджера.

Качество: HDRip
Формат: AVI
Видео: XviD, 1429 Кбит/с, 704x384, 23.976 кадр/с
Аудио#1: AC3, 2 ch, 192 Кбит/с | Профессиональный многоголосый (Первый канал)
Аудио#2: AC3, 2 ch, 192 Кбит/с | Профессиональный двухголосый (Премьер Видео Фильм)
Релиз от: Koenig
скриншот   скриншот   скриншот   скриншот   скриншот   скриншот  

Общее
Полное имя : The.Boxer.1997.HDRip.avi
Формат : AVI
Формат/Информация : Audio Video Interleave
Размер файла : 1,45 Гбайт
Продолжительность : 1 ч. 53 м.
Общий поток : 1827 Кбит/сек
Программа кодирования : VirtualDubMod 1.5.10.2 (build 2540/release)
Библиотека кодирования : VirtualDubMod build 2540/release

Видео
Идентификатор : 0
Формат : MPEG-4 Visual
Профиль формата : Advanced Simple@L5
Параметр BVOP формата : 1
Параметр QPel формата : Нет
Параметр GMC формата : Без точки перехода
Параметр матрицы формата : Выборочная
Идентификатор кодека : XVID
Идентификатор кодека/Подсказка : XviD
Продолжительность : 1 ч. 53 м.
Битрейт : 1429 Кбит/сек
Ширина : 704 пикселя
Высота : 384 пикселя
Соотношение сторон : 1,85:1
Частота кадров : 23,976 (24000/1001) кадра/сек
Цветовое пространство : YUV
Субдискретизация насыщенности : 4:2:0
Битовая глубина : 8 бит
Тип развёртки : Прогрессивная
Метод сжатия : С потерями
Бит/(Пиксели*Кадры) : 0.220
Размер потока : 1,13 Гбайт (78%)
Библиотека кодирования : XviD 65

Аудио #1
Идентификатор : 1
Формат : AC-3
Формат/Информация : Audio Coding 3
Параметр Endianness формата : Big
Идентификатор кодека : 2000
Продолжительность : 1 ч. 53 м.
Вид битрейта : Постоянный
Битрейт : 192 Кбит/сек
Каналы : 2 канала
Расположение каналов : Front: L R
Частота : 48,0 КГц
Частота кадров : 31,250 кадров/сек (1536 spf)
Битовая глубина : 16 бит
Метод сжатия : С потерями
Размер потока : 156 Мбайт (11%)
Выравнивание : Разделение по промежуткам
Продолжительность промежутка : 42 мс. (1,00 видеокадр)
Время предзагрузки промежутка : 500 мс.
ServiceKind/String : Complete Main

Аудио #2
Идентификатор : 2
Формат : AC-3
Формат/Информация : Audio Coding 3
Параметр Endianness формата : Big
Идентификатор кодека : 2000
Продолжительность : 1 ч. 53 м.
Вид битрейта : Постоянный
Битрейт : 192 Кбит/сек
Каналы : 2 канала
Расположение каналов : Front: L R
Частота : 48,0 КГц
Частота кадров : 31,250 кадров/сек (1536 spf)
Битовая глубина : 16 бит
Метод сжатия : С потерями
Размер потока : 156 Мбайт (11%)
Выравнивание : Разделение по промежуткам
Продолжительность промежутка : 42 мс. (1,00 видеокадр)
Время предзагрузки промежутка : 500 мс.
ServiceKind/String : Complete Main

pb.wtf



Скачать Боксер через торрент http://pic1.kartinco.top/images/11/jrqpx.jpg Скачать фильм Боксер через торрент бесплантно в хорошем качестве Описание: После четырнадцати лет, проведенных в тюрьме, боксер Дэнни Флинн возвращается в неспокойный Белфаст к своей давней пассии Мэгги, ... 10 10 4
Торрент: Зарегистрирован [2017-11-26 12:56] · скачан: 36 раз
Статус: √ проверено
Размер: 1.45 GB
Как cкачать? Как скачать Боксер через торрент | qTorrent

% Раздел Тема Автор DL S | L
Фильмы [HD 720p, 1080p] (Хороший звук DUB, MVO) [ 4.4 GB ] Кикбоксер 4: Агрессор / Kickboxer 4: The Aggressor [1994 BDRip 720p by msltel] MVO DVO 2 x AVO msltel Скачать
1 | 0


>> Регистрируемся здесь <<






Отзывы и комментарии о схеме читаем и пишем здесь: ---> Отзывы и комментарии о схеме

Новые благодарочки в телеграм довольных пользователей:
скриншот   скриншот   скриншот   скриншот   скриншот
    Дорогой пользователь! Огромная просьба, поблагодарите релизера, оцените раздачу и оставьте свои комментарий, если Вы скачали Боксер через торрент бесплатно! Внесите свою лепту в развитие PiratBit!
    Комментировать посты могут только пользователи прошедшие не сложную регистрацию
    Показать сообщения:    

    Боксер через торрент
    Скачать бесплатно Боксер
    Боксер скачать торрент
    Боксер смотреть онлайн
    Cкачать фильм Боксер бесплатно
    Боксер скачать торрент в хорошем качестве
    Боксер смотреть онлайн бесплатно в хорошем качестве


    Вы не можете начинать темы
    Вы не можете отвечать на сообщения
    Вы не можете редактировать свои сообщения
    Вы не можете удалять свои сообщения
    Вы не можете голосовать в опросах
    Вы не можете прикреплять файлы к сообщениям
    Вы можете скачивать файлы