2 сезон

iTunes

MVO

1

2 сезон

iTunes

iTunes

1 сезон

RePack

30

Новинка

ВАЖНО

ИГРА 18+

pack

RePack

MK11
pack

Легкие деньги

RePack

jed

RePack

fifa19

RePack

RDR2

RePack

NEED FOR SPEED™ PAYBACK

4 сезон

9 сезон

Бесстыжие 9 сезон

Все сериалы

все сериалы на PB.wtf

RePack

FAR CRY 5

Anonymous, доброй ночи, мы не успеваем собрать деньги на оплату серверов за декабрь и январь, помогите нам пожалуйста в это трудное время. В качестве благодарности мы отключим Вам всю рекламу на сайте (укажите свой ник в строку Ваше имя)!

×
  
Magnet ссылка

Валериан и город тысячи планет / Valerian and the City of a Thousand Planets (Люк Бессон / Luc Besson) [2017, фантастика, фэнтези, боевик, BDRip-AVC] Dub [Лицензия] pb.wtf

Валериан и город тысячи планет через торрент pb.wtf

Раздают: 2 [ 0 KB/s ]
Размер: 1.48 GB | Добавлен: 3 года назад | Торрент скачан:1414 раз
Скачать  

26-11-2017 13:04 Валериан и город тысячи планет Скачать торрент  

Валериан и город тысячи планет
Valerian and the City of a Thousand Planets

«From the visionary director of The Fifth Element and Lucy»


Страна: Франция, Китай, Бельгия, Германия, ОАЭ, США, Великобритания, Канада
Жанр: фантастика, фэнтези, боевик, приключения

Год выпуска: 2017
Продолжительность: 02:16:40

Перевод: Профессиональный (полное дублирование) [Blu-ray RUS]
Субтитры: русские (форсированные, полные)
Оригинальная аудиодорожка: нет

Режиссер: Люк Бессон / Luc Besson

В ролях: Дэйн ДеХаан, Кара Делевинь, Клайв Оуэн, Рианна, Итан Хоук, Херби Хэнкок, Крис У, Сэм Спруэлл, Ален Шаба, Рутгер Хауэр, Питер Хадсон, Ксавье Джанноли

Описание:
2700 год. Валериан и Лорелин - космические спецагенты, которые по долгу службы впутались в подозрительное дело и стали невольными участниками то ли межгалактического заговора, то ли аферы причудливых поселенцев планеты Альфа, прибывших туда из различных миров со всех уголков галактик.



Релиз:

Автор рипа: stalkerok | Моя группа

Сэмпл

Качество видео: BDRip-AVC [Valerian and the City of a Thousand Planets 2017 1080p NOR Blu-ray AVC DTS-HD MA 5.1-ESiR]
Формат видео: MKV
Видео кодек: AVC
Аудио кодек: AAC
Видео: 1484 Кбит/сек, 912x382 (2.40:1), 23,976 кадр/сек, AVC
Аудио: русский, 64,0 Кбит/сек, 48,0 КГц / 24,0 КГц, 2 канала, AAC (HE-AAC / LC)
Навигация по главам: есть

x264 [info]: frame I:2085 Avg QP:17.30 size: 42328
x264 [info]: frame P:47926 Avg QP:19.40 size: 15727
x264 [info]: frame B:146591 Avg QP:22.52 size: 4639

Общее
Уникальный идентификатор : 200595196357017484835639389781406216676 (0x96E93AC2E62096B0A29F7C80746771E4)
Полное имя : M:\!Rips2017\Valerian and the City of a Thousand Planets\LIC\Valerian.and.the.City.of.a.Thousand.Planets.2017.BDRip-AVC.RUS.stalkerok.new-team.mkv
Формат : Matroska
Версия формата : Version 4 / Version 2
Размер файла : 1,48 Гбайт
Продолжительность : 2 ч. 16 м.
Общий поток : 1551 Кбит/сек
Название фильма : Valerian and the City of a Thousand Planets (2017) (Rip by stalkerok)
Дата кодирования : UTC 2018-01-01 14:42:57
Программа кодирования : mkvmerge v8.6.1 ('Flying') 64bit
Библиотека кодирования : libebml v1.3.3 + libmatroska v1.4.4

Видео
Идентификатор : 1
Формат : AVC
Формат/Информация : Advanced Video Codec
Профиль формата : High@L4.1
Параметр CABAC формата : Да
Параметр ReFrames формата : 14 кадров
Идентификатор кодека : V_MPEG4/ISO/AVC
Продолжительность : 2 ч. 16 м.
Битрейт : 1485 Кбит/сек
Ширина : 912 пикселей
Высота : 382 пикселя
Соотношение сторон : 2,40:1
Режим частоты кадров : Постоянный
Частота кадров : 23,976 (24000/1001) кадра/сек
Цветовое пространство : YUV
Субдискретизация насыщенности : 4:2:0
Битовая глубина : 8 бит
Тип развёртки : Прогрессивная
Бит/(Пиксели*Кадры) : 0.178
Размер потока : 1,42 Гбайт (96%)
Заголовок : Valerian and the City of a Thousand Planets (2017) (Rip by stalkerok)
Библиотека кодирования : x264 core 152 r2851kMod ba24899
Настройки программы : cabac=1 / ref=14 / deblock=1:-3:-2 / analyse=0x3:0x133 / me=umh / subme=11 / psy=1 / fade_compensate=0.00 / psy_rd=1.00:0.00 / mixed_ref=1 / me_range=32 / chroma_me=1 / trellis=2 / 8x8dct=1 / cqm=0 / deadzone=21,11 / fast_pskip=0 / chroma_qp_offset=-2 / threads=12 / lookahead_threads=2 / sliced_threads=0 / nr=0 / decimate=1 / interlaced=0 / bluray_compat=0 / constrained_intra=0 / bframes=14 / b_pyramid=2 / b_adapt=2 / b_bias=0 / direct=3 / weightb=1 / open_gop=0 / weightp=2 / keyint=240 / keyint_min=23 / scenecut=40 / intra_refresh=0 / rc_lookahead=60 / rc=crf / mbtree=0 / crf=18.8000 / qcomp=0.65 / qpmin=0 / qpmax=69 / qpstep=4 / vbv_maxrate=50000 / vbv_bufsize=62500 / crf_max=0.0 / nal_hrd=none / filler=0 / ip_ratio=1.40 / pb_ratio=1.30 / aq=3:0.90 / zones=187049,196601,q=35
Default : Да
Forced : Нет

Аудио
Идентификатор : 4
Формат : AAC
Формат/Информация : Advanced Audio Codec
Профиль формата : HE-AAC / LC
Идентификатор кодека : A_AAC
Продолжительность : 2 ч. 16 м.
Битрейт : 64,0 Кбит/сек
Каналы : 2 канала
Расположение каналов : Front: L R
Частота : 48,0 КГц / 24,0 КГц
Частота кадров : 23,438 кадра/сек (1024 spf)
Метод сжатия : С потерями
Задержка видео : 31 мс.
Размер потока : 62,6 Мбайт (4%)
Язык : Russian
Default : Да
Forced : Нет

Текст #1
Идентификатор : 2
Формат : UTF-8
Идентификатор кодека : S_TEXT/UTF8
Идентификатор кодека/Информация : UTF-8 Plain Text
Продолжительность : 2 ч. 8 м.
Битрейт : 1 бит/сек
Count of elements : 37
Размер потока : 1,39 Кбайт (0%)
Заголовок : Форсированные (компиляция Ash61 [v.3])
Язык : Russian
Default : Да
Forced : Нет

Текст #2
Идентификатор : 3
Формат : UTF-8
Идентификатор кодека : S_TEXT/UTF8
Идентификатор кодека/Информация : UTF-8 Plain Text
Продолжительность : 2 ч. 6 м.
Битрейт : 87 бит/сек
Count of elements : 1541
Размер потока : 81,3 Кбайт (0%)
Заголовок : Полные (по дубляжу набил Ash61)
Язык : Russian
Default : Нет
Forced : Нет

Меню
00:00:00.000 : en:Chapter 1
00:11:12.213 : en:Chapter 2
00:20:10.500 : en:Chapter 3
00:30:38.336 : en:Chapter 4
00:41:21.562 : en:Chapter 5
00:51:37.344 : en:Chapter 6
01:01:54.919 : en:Chapter 7
01:10:50.996 : en:Chapter 8
01:20:27.489 : en:Chapter 9
01:34:23.741 : en:Chapter 10
01:44:35.102 : en:Chapter 11
01:57:01.723 : en:Chapter 12
02:06:18.195 : en:Chapter 13
скриншот   скриншот   скриншот   скриншот   скриншот   скриншот   скриншот  
pb.wtf



Скачать Валериан и город тысячи планет через торрент http://i6.imageban.ru/out/2017/09/18/2ff75c0c358795c5946784cc1680714d.png Скачать фильм Валериан и город тысячи планет через торрент бесплантно в хорошем качестве Описание:2700 год. Валериан и Лорелин - космические спецагенты, которые по долгу службы впутались в подозрительное дело и стали невольными ... 9.9 10 48
Info! Золотая раздача, скачанное не засчитывается.
Торрент: Зарегистрирован [2018-01-01 17:06] · скачан: 1 414 раз
Статус: √ проверено
Размер: 1.48 GB
Как cкачать? Как скачать Валериан и город тысячи планет через торрент | UTorrent

% Раздел Тема Автор DL S | L
Фильмы (HD 720p, 1080p) (48-60 fps) [ 5.92 GB ] Валериан и город тысячи планет / Valerian and the City of a Thousand Planets [2017 BDRip 720p 60 fps от еnvy / NNNB] NOR-Transfer | DUB еnvy Скачать
13 | 0
Ultra HD (UHD: 2K, 4K, 8K) — видео сверхвысокой чёткости [ 59.55 GB ] Валериан и город тысячи планет / Valerian and the City of a Thousand Planets [2017 UHD Blu-ray 2160p] - [] sheker187 Скачать
1 | 0
Ultra HD (UHD: 2K, 4K, 8K) — видео сверхвысокой чёткости [ 51.03 GB ] Валериан и город тысячи планет / Valerian and the City of a Thousand Planets [2017 UHD BDRemux 2160p] DUB [Dolby Vision] sheker187 Скачать
1 | 0
Фильмы (HD 720p, 1080p) (48-60 fps) [ 20.2 GB ] Валериан и город тысячи планет / Valerian and the City of a Thousand Planets [2017 NOR-Transfer BDRip 1080p / 60 FPS Dub Original] Tiberiumsun69 Скачать
12 | 0
Фильмы с авторской озвучкой [ 2.75 GB ] Валериан и город тысячи планет / Valerian and the City of a Thousand Planets [2017 BDRip] 2x[AVO] killermax2013 Скачать
1 | 0
Фильмы [HD 720p, 1080p] (Хороший звук DUB, MVO) [ 6.14 GB ] Валериан и город тысячи планет / Valerian and the City of a Thousand Planets [2017 BDRip 720p] [NOR-Transfer] DUB [] potroks Скачать
1 | 0
Фильмы [HD 720p, 1080p] (Хороший звук DUB, MVO) [ 8.18 GB ] Валериан и город тысячи планет / Valerian and the City of a Thousand Planets [2017 BDRip-HEVC 1080p] [] + [AVO] killermax2013 Скачать
1 | 0


Последний раз редактировалось: sokol_ok (2018-01-01 17:06), всего редактировалось 2 раз(а)

28-11-2019 20:33  

Отключить всю рекламу на сайте

26-11-2017 13:19 Валериан и город тысячи планет Скачать торрент  

ну наконец то нормальный звук, спсpb.wtf



26-11-2017 13:48 Валериан и город тысячи планет Скачать торрент  

DavidLynch писал(а):

ну наконец то нормальный звук, спс

И я того же мнения) Спасибо!pb.wtf



28-11-2017 09:59 Валериан и город тысячи планет Скачать торрент  

Звук обновлен на iTunespb.wtf



01-01-2018 17:06 Валериан и город тысячи планет Скачать торрент  

Замена на звук с Blu-ray RUSpb.wtf



    Дорогой пользователь! Огромная просьба, поблагодарите релизера, оцените раздачу и оставьте свои комментарий, если Вы скачали Валериан и город тысячи планет через торрент бесплатно! Внесите свою лепту в развитие PiratBit!
    Комментировать посты могут только пользователи прошедшие не сложную регистрацию
    Показать сообщения:    

    Валериан и город тысячи планет через торрент
    Скачать бесплатно Валериан и город тысячи планет
    Валериан и город тысячи планет скачать торрент
    Валериан и город тысячи планет смотреть онлайн
    Cкачать фильм Валериан и город тысячи планет бесплатно
    Валериан и город тысячи планет скачать торрент в хорошем качестве
    Валериан и город тысячи планет смотреть онлайн бесплатно в хорошем качестве


    Вы не можете начинать темы
    Вы не можете отвечать на сообщения
    Вы не можете редактировать свои сообщения
    Вы не можете удалять свои сообщения
    Вы не можете голосовать в опросах
    Вы не можете прикреплять файлы к сообщениям
    Вы можете скачивать файлы