2 сезон

iTunes

MVO

1

2 сезон

iTunes

iTunes

1 сезон

RePack

30

Ultimate

ВАЖНО

ИГРА 18+

pack

RePack

MK11
pack

Легкие деньги

RePack

jed

RePack

fifa19

RePack

RDR2

RePack

NEED FOR SPEED™ PAYBACK

4 сезон

9 сезон

Бесстыжие 9 сезон

Все сериалы

все сериалы на PB.wtf

RePack

FAR CRY 5

Anonymous, добрый вечер, мы не успеваем собрать деньги на оплату серверов за декабрь и январь, помогите нам пожалуйста в это трудное время. В качестве благодарности мы отключим Вам всю рекламу на сайте (укажите свой ник в строку Ваше имя)!

×
  
Magnet ссылка

Реальная белка 2 / The Nut Job 2: Nutty by Nature (Кэллан Брункер) [2017 г., мультфильм, комедия, приключения, семейный, BDRip] [720p] [DUB] [Лицензия] pb.wtf

Реальная белка 2 через торрент pb.wtf

Размер: 5.48 GB | Добавлен: 3 года 1 мес. назад | Торрент скачан:946 раз
Скачать  

26-11-2017 21:28 Реальная белка 2 Скачать торрент  

Реальная белка 2 / The Nut Job 2: Nutty by Nature
«Get ready. Get set. Get nuts!»

Год выхода: 2017
Страна: Канада, Корея Южная, США
Жанр: мультфильм, комедия, приключения, семейный
Продолжительность: 01:31:41
Перевод: Дубляж [Лицензия]
Субтитры: Отсутствуют

Режиссер: Кэллан Брункер

В ролях: Уилл Арнетт, Кэтрин Хайгл, Майя Рудольф, Джеки Чан, Изабела Монер, Петер Стормаре, Бобби Каннавале, Бобби Мойнахан, Джефф Данэм, Габриэль Иглесиас

О фильме:В продолжении веселых хвостатых приключений белке Злюку и его друзьям снова нужно действовать сообща. На сей раз - чтобы спасти свой дом: мэр города задумал вырубить их парк и построить на его месте бездушные аттракционы... К счастью, у Злюка и других любителей арахиса есть план, не последняя роль в котором отведена новым друзьям наших героев - белым мышам под предводительством мудрого мистера Фэнга.



Качество: BDRip 720p
Формат: MKV
Видео кодек: AVC
Аудио кодек: AC3
Видео: 1280x694, 23.976 fps, ~7200 kbps avg
Аудио: 48 kHz, AC3 Dolby Digital, 6 ch, ~384 kbps - [Лицензия]
Аудио: 48 kHz, AC3 Dolby Digital, 6 ch, ~640 kbps - [Оригинал]
General
Unique ID : 227490592898794767870237531294763712580 (0xAB251830B1CC80F8B98E548848A60044)
Complete name : E:\The.Nut.Job.2.Nutty.by.Nature.2017.720p.BluRay.Rus.Eng.mkv
Format : Matroska
Format version : Version 2
File size : 5.48 GiB
Duration : 1 h 31 min
Overall bit rate : 8 601 kb/s
Encoded date : UTC 2017-11-26 19:37:33
Writing application : mkvmerge v8.3.0 ('Over the Horizon') 64bit
Writing library : libebml v1.3.1 + libmatroska v1.4.2

Video
ID : 1
Format : AVC
Format/Info : Advanced Video Codec
Format profile : High@L4.1
Format settings : CABAC / 12 Ref Frames
Format settings, CABAC : Yes
Format settings, RefFrames : 12 frames
Codec ID : V_MPEG4/ISO/AVC
Duration : 1 h 31 min
Bit rate : 7 406 kb/s
Width : 1 280 pixels
Height : 694 pixels
Display aspect ratio : 1.85:1
Frame rate mode : Constant
Frame rate : 23.976 (24000/1001) FPS
Color space : YUV
Chroma subsampling : 4:2:0
Bit depth : 8 bits
Scan type : Progressive
Bits/(Pixel*Frame) : 0.348
Stream size : 4.72 GiB (86%)
Writing library : x264 core 146 r2538 121396c
Encoding settings : cabac=1 / ref=12 / deblock=1:-3:-3 / analyse=0x3:0x133 / me=umh / subme=10 / psy=1 / psy_rd=1.00:0.00 / mixed_ref=1 / me_range=32 / chroma_me=1 / trellis=2 / 8x8dct=1 / cqm=0 / deadzone=21,11 / fast_pskip=0 / chroma_qp_offset=-2 / threads=6 / lookahead_threads=1 / sliced_threads=0 / nr=0 / decimate=0 / interlaced=0 / bluray_compat=0 / constrained_intra=0 / bframes=9 / b_pyramid=2 / b_adapt=2 / b_bias=0 / direct=3 / weightb=1 / open_gop=0 / weightp=2 / keyint=250 / keyint_min=23 / scenecut=40 / intra_refresh=0 / rc=crf / mbtree=0 / crf=14.0 / qcomp=0.60 / qpmin=0 / qpmax=69 / qpstep=4 / ip_ratio=1.40 / pb_ratio=1.30 / aq=3:0.80
Language : English
Default : Yes
Forced : No

Audio #1
ID : 2
Format : AC-3
Format/Info : Audio Coding 3
Format settings, Endianness : Big
Codec ID : A_AC3
Duration : 1 h 31 min
Bit rate mode : Constant
Bit rate : 384 kb/s
Channel(s) : 6 channels
Channel positions : Front: L C R, Side: L R, LFE
Sampling rate : 48.0 kHz
Frame rate : 31.250 FPS (1536 SPF)
Bit depth : 16 bits
Compression mode : Lossy
Stream size : 251 MiB (4%)
Language : Russian
Service kind : Complete Main
Default : Yes
Forced : No

Audio #2
ID : 3
Format : AC-3
Format/Info : Audio Coding 3
Format settings, Endianness : Big
Codec ID : A_AC3
Duration : 1 h 31 min
Bit rate mode : Constant
Bit rate : 640 kb/s
Channel(s) : 6 channels
Channel positions : Front: L C R, Side: L R, LFE
Sampling rate : 48.0 kHz
Frame rate : 31.250 FPS (1536 SPF)
Bit depth : 16 bits
Compression mode : Lossy
Stream size : 418 MiB (7%)
Language : English
Service kind : Complete Main
Default : No
Forced : No

Menu
00:00:00.000 : en:00:00:00.000
00:03:50.313 : en:00:03:50.313
00:08:22.043 : en:00:08:22.043
00:11:13.715 : en:00:11:13.715
00:15:12.036 : en:00:15:12.036
00:21:43.636 : en:00:21:43.636
00:26:14.114 : en:00:26:14.114
00:29:11.833 : en:00:29:11.833
00:34:00.789 : en:00:34:00.789
00:37:21.364 : en:00:37:21.364
00:42:34.510 : en:00:42:34.510
00:48:18.896 : en:00:48:18.896
00:52:09.043 : en:00:52:09.043
00:55:53.725 : en:00:55:53.725
01:02:19.069 : en:01:02:19.069
01:05:39.352 : en:01:05:39.352
01:08:30.648 : en:01:08:30.648
01:13:08.092 : en:01:13:08.092
01:18:30.039 : en:01:18:30.039
01:21:07.529 : en:01:21:07.529
скриншот  скриншот  скриншот  
pb.wtf



Скачать Реальная белка 2 через торрент http://s010.youpic.su/pictures/1503439200/61bd90361be0f4a45d29233ce3646e96.png Скачать фильм Реальная белка 2 через торрент бесплантно в хорошем качестве О фильме:В продолжении веселых хвостатых приключений белке Злюку и его друзьям снова нужно действовать сообща. На сей раз - чтобы спасти ... 9.3 10 26
Торрент: Зарегистрирован [2017-11-26 21:28] · скачан: 946 раз
Статус: √ проверено
Размер: 5.48 GB
Как cкачать? Как скачать Реальная белка 2 через торрент | UTorrent

% Раздел Тема Автор DL S | L
3D Мультфильмы [ 11.96 GB ] Реальная белка 2 в 3Д / The Nut Job 2: Nutty by Nature 3D [2017 мультфильм BDRip 1080p] OverUnder / Вертикальная стереопара DUB serega768 Скачать
1 | 0
3D Мультфильмы [ 9.03 GB ] Реальная белка 2 3Д / The Nut Job 2: Nutty by Nature 3D [2017 Мультфильм BDRip 1080p] [Half OverUnder / Вертикальная анаморфная стереопара] DUB bober100 Скачать
1 | 0
Иностранные мультфильмы [ 747 MB ] Реальная белка 2 / The Nut Job 2: Nutty by Nature [2017 Мультфильм BDRip] bober100 Скачать
1 | 0
Зарубежные Мультфильмы (BDRip 1080p, 720p, Blu-ray, BD-Remux) [ 6.66 GB ] Реальная белка 2 / The Nut Job 2: Nutty by Nature [2017 Мультфильм BDRip 1080p] bober100 Скачать
1 | 0
Иностранные мультфильмы [ 1.42 GB ] Реальная белка 2 / The Nut Job 2: Nutty by Nature [2017 мультфильм BDRip] - Twi7ter Скачать
2 | 0
Фильмы без перевода [ 2.78 GB ] Реальная белка 2 / The Nut Job 2: Nutty by Nature [2017 мультфильм WEB-DL 720p] [ENG] killermax2013 Скачать
1 | 0

28-11-2019 20:33  

Отключить всю рекламу на сайте

27-11-2017 19:14 Реальная белка 2 Скачать торрент  

    Дорогой пользователь! Огромная просьба, поблагодарите релизера, оцените раздачу и оставьте свои комментарий, если Вы скачали Реальная белка 2 через торрент бесплатно! Внесите свою лепту в развитие PiratBit!
    Комментировать посты могут только пользователи прошедшие не сложную регистрацию
    Показать сообщения:    

    Реальная белка 2 через торрент
    Скачать бесплатно Реальная белка 2
    Реальная белка 2 скачать торрент
    Реальная белка 2 смотреть онлайн
    Cкачать фильм Реальная белка 2 бесплатно
    Реальная белка 2 скачать торрент в хорошем качестве
    Реальная белка 2 смотреть онлайн бесплатно в хорошем качестве


    Вы не можете начинать темы
    Вы не можете отвечать на сообщения
    Вы не можете редактировать свои сообщения
    Вы не можете удалять свои сообщения
    Вы не можете голосовать в опросах
    Вы не можете прикреплять файлы к сообщениям
    Вы можете скачивать файлы