Anonymous, добрый вечер, присоединяйтесь к нам в Telegram!, здесь всегда актуальный адрес сайта, оперативная поддержка и многое другое!

>

5.6

iTunes

7.4

iTunes

7.9

MVO

1

7.7

1 сезон

6.8

iTunes

7.3

1 сезон

13

6.7

1 сезон

8.3

RePack

30

PREMIUM

pack

9.9

Лицензия

ВАЖНО

ИГРА 18+

pack

7.3

RePack

MK11

7.7

RePack

jed

7.8

RePack

fifa19

8.5

RePack

RDR2

RePack

NEED FOR SPEED™ PAYBACK

4 сезон

9 сезон

Бесстыжие 9 сезон

Все сериалы

все сериалы на PB.wtf

RePack

FAR CRY 5

Anonymous, добрый вечер, мы катастрофически не успеваем собрать деньги на оплату серверов, помогите нам пожалуйста 5,10,15р., для нас важна любая помощь . В качестве благодарности мы отключим Вам всю рекламу на сайте (укажите свой ник в строку Ваше имя)!

×
  
Magnet ссылка

Рем Дигга - Черника (2012) / FLAC (image + .cue) / lossless / Rap pb.wtf

Рем Дигга - Черника через торрент pb.wtf

Размер: 360 MB | Добавлен: 3 года 10 мес. назад | Торрент скачан:5 раз
Смотреть онлайн Рем Дигга - Черника | Скачать    Ребята, помогите собрать деньги на оплату серверов!!!

27-11-2017 08:22 Рем Дигга - Черника Скачать торрент  

Рем Дигга - Черника

Страна: Россия
Жанр: Rap
Год выпуска: 2012
Формат: FLAC (image + .cue)
Битрейт аудио: lossless
Длительность: 00:52:03
1.Кабардинка
2.Синбад
3.Весна
4.Черника
5.Музыка дождя при уч. Nellena (Yashar Gasanov mix)
6.Всё =
7.Шмарина
8.Чёртополох
9.Мёд при уч. Искра
10.Тайна при уч. Guf
11.Так надо
12.Она (черничная версия)
13.Вильям
14.За плечом при уч. Маринесса
15.Индия при уч.InDika

Exact Audio Copy V1.0 beta 3 from 29. August 2011

Отчёт EAC об извлечении, выполненном 23. декабря 2012, 10:41

Рем Дигга / Черника

Дисковод: Optiarc DVD RW AD-7280S Adapter: 0 ID: 0

Режим чтения : Достоверность
Использование точного потока : Да
Отключение кэша аудио : Да
Использование указателей C2 : Нет

Коррекция смещения при чтении : 48
Способность читать области Lead-in и Lead-out : Нет
Заполнение пропущенных сэмплов тишиной : Да
Удаление блоков с тишиной в начале и конце : Нет
При вычислениях CRC использовались нулевые сэмплы : Да
Интерфейс : Встроенный Win32-интерфейс для Win NT/2000
Обработка зазоров : Добавлено к предыдущему треку

Выходной формат : Пользовательский кодировщик
Выбранный битрейт : 128 kBit/s
Качество : Высокий
Добавление ID3-тега : Нет
Утилита сжатия : C:\Program Files (x86)\FLAC\flac.exe
Дополнительные параметры : -V -8 -T "Genre=%genre%" -T "Artist=%artist%" -T "Title=%title%" -T "Album=%albumtitle%" -T "Date=%year%" -T "Tracknumber=%tracknr%" -T "Comment=%comment%" %source%

TOC извлечённого CD

Трек | Старт | Длительность | Начальный сектор | Конечный сектор
---------------------------------------------------------------------
1 | 0:00.00 | 3:06.40 | 0 | 13989
2 | 3:06.40 | 2:57.47 | 13990 | 27311
3 | 6:04.12 | 3:02.05 | 27312 | 40966
4 | 9:06.17 | 3:06.00 | 40967 | 54916
5 | 12:12.17 | 5:09.55 | 54917 | 78146
6 | 17:21.72 | 3:33.18 | 78147 | 94139
7 | 20:55.15 | 3:39.12 | 94140 | 110576
8 | 24:34.27 | 2:49.10 | 110577 | 123261
9 | 27:23.37 | 4:20.73 | 123262 | 142834
10 | 31:44.35 | 4:01.52 | 142835 | 160961
11 | 35:46.12 | 3:55.01 | 160962 | 178587
12 | 39:41.13 | 3:18.09 | 178588 | 193446
13 | 42:59.22 | 0:44.14 | 193447 | 196760
14 | 43:43.36 | 3:25.16 | 196761 | 212151
15 | 47:08.52 | 4:54.42 | 212152 | 234243

Трек 1

Имя файла D:\Рем Дигга - Черника\01 Кабардинка.wav

Длина предзазора 0:00:02.00

Пиковый уровень 96.7 %
Скорость извлечения 1.9 X
Качество трека 99.9 %
CRC теста 1F8449CB
CRC копии 1F8449CB
Трек не обнаружен в базе AccurateRip
Копирование... OK

Трек 2

Имя файла D:\Рем Дигга - Черника\02 Синбад.wav

Пиковый уровень 96.7 %
Скорость извлечения 2.1 X
Качество трека 99.9 %
CRC теста 0DB6541E
CRC копии 0DB6541E
Трек не обнаружен в базе AccurateRip
Копирование... OK

Трек 3

Имя файла D:\Рем Дигга - Черника\03 Весна.wav

Пиковый уровень 96.7 %
Скорость извлечения 2.6 X
Качество трека 100.0 %
CRC теста 688F6FA3
CRC копии 688F6FA3
Трек не обнаружен в базе AccurateRip
Копирование... OK

Трек 4

Имя файла D:\Рем Дигга - Черника\04 Черника.wav

Пиковый уровень 96.7 %
Скорость извлечения 2.8 X
Качество трека 100.0 %
CRC теста 553897FF
CRC копии 553897FF
Трек не обнаружен в базе AccurateRip
Копирование... OK

Трек 5

Имя файла D:\Рем Дигга - Черника\05 Музыка дождя при уч. Nellena (Yashar Gasanov mix).wav

Пиковый уровень 100.0 %
Скорость извлечения 2.9 X
Качество трека 99.9 %
CRC теста 21865BC3
CRC копии 21865BC3
Трек не обнаружен в базе AccurateRip
Копирование... OK

Трек 6

Имя файла D:\Рем Дигга - Черника\06 Всё.wav

Пиковый уровень 96.7 %
Скорость извлечения 3.2 X
Качество трека 100.0 %
CRC теста 57F374B5
CRC копии 57F374B5
Трек не обнаружен в базе AccurateRip
Копирование... OK

Трек 7

Имя файла D:\Рем Дигга - Черника\07 Шмарина.wav

Пиковый уровень 96.7 %
Скорость извлечения 3.4 X
Качество трека 100.0 %
CRC теста 0AC86F2A
CRC копии 0AC86F2A
Трек не обнаружен в базе AccurateRip
Копирование... OK

Трек 8

Имя файла D:\Рем Дигга - Черника\08 Чёртополох.wav

Пиковый уровень 96.7 %
Скорость извлечения 3.4 X
Качество трека 100.0 %
CRC теста 5FF158F9
CRC копии 5FF158F9
Трек не обнаружен в базе AccurateRip
Копирование... OK

Трек 9

Имя файла D:\Рем Дигга - Черника\09 Мёд при уч. Искра.wav

Пиковый уровень 96.7 %
Скорость извлечения 3.8 X
Качество трека 100.0 %
CRC теста 5E1E1288
CRC копии 5E1E1288
Трек не обнаружен в базе AccurateRip
Копирование... OK

Трек 10

Имя файла D:\Рем Дигга - Черника\10 Тайна при уч. Guf.wav

Пиковый уровень 96.7 %
Скорость извлечения 3.5 X
Качество трека 99.9 %
CRC теста B498E6C2
CRC копии B498E6C2
Трек не обнаружен в базе AccurateRip
Копирование... OK

Трек 11

Имя файла D:\Рем Дигга - Черника\11 Так надо.wav

Пиковый уровень 100.0 %
Скорость извлечения 3.6 X
Качество трека 99.9 %
CRC теста BA338700
CRC копии BA338700
Трек не обнаружен в базе AccurateRip
Копирование... OK

Трек 12

Имя файла D:\Рем Дигга - Черника\12 Она (черничная версия).wav

Пиковый уровень 96.7 %
Скорость извлечения 4.1 X
Качество трека 100.0 %
CRC теста 2CC67BC4
CRC копии 2CC67BC4
Трек не обнаружен в базе AccurateRip
Копирование... OK

Трек 13

Имя файла D:\Рем Дигга - Черника\13 Вильям.wav

Пиковый уровень 96.7 %
Скорость извлечения 2.6 X
Качество трека 100.0 %
CRC теста A2ACB710
CRC копии A2ACB710
Трек не обнаружен в базе AccurateRip
Копирование... OK

Трек 14

Имя файла D:\Рем Дигга - Черника\14 За плечом при уч. Маринесса.wav

Пиковый уровень 96.7 %
Скорость извлечения 4.3 X
Качество трека 100.0 %
CRC теста A962392D
CRC копии A962392D
Трек не обнаружен в базе AccurateRip
Копирование... OK

Трек 15

Имя файла D:\Рем Дигга - Черника\15 Индия при уч.InDika.wav

Пиковый уровень 96.7 %
Скорость извлечения 4.6 X
Качество трека 100.0 %
CRC теста 803BAE47
CRC копии 803BAE47
Трек не обнаружен в базе AccurateRip
Копирование... OK

Ни одного трека нет в базе AccurateRip

Ошибок не произошло

Конец отчёта

---- CUETools DB Plugin V2.1.3

[CTDB TOCID: jjIil9BBVzTC.bPVfoSq7G6PFAM-] found, Submit result: already submitted
[84dfa03a] (1/1) Accurately ripped

==== Контрольная сумма отчёта C32D1EC960BF5CB32C67F6D332446D0A90AEF27FD58D92DEABF9063E4C83513D ====

REM GENRE Rap
REM DATE 2012
REM DISCID D50C330F
REM COMMENT "ExactAudioCopy v1.0b3"
PERFORMER "Рем Дигга"
TITLE "Черника"
FILE "01 Кабардинка.wav" WAVE
TRACK 01 AUDIO
TITLE "Кабардинка"
PERFORMER "Рем Дигга"
INDEX 01 00:00:00
FILE "02 Синбад.wav" WAVE
TRACK 02 AUDIO
TITLE "Синбад"
PERFORMER "Рем Дигга"
INDEX 01 00:00:00
FILE "03 Весна.wav" WAVE
TRACK 03 AUDIO
TITLE "Весна"
PERFORMER "Рем Дигга"
INDEX 01 00:00:00
FILE "04 Черника.wav" WAVE
TRACK 04 AUDIO
TITLE "Черника"
PERFORMER "Рем Дигга"
INDEX 01 00:00:00
FILE "05 Музыка дождя при уч. Nellena (Yashar Gasanov mix).wav" WAVE
TRACK 05 AUDIO
TITLE "Музыка дождя при уч. Nellena (Yashar Gasanov mix)"
PERFORMER "Рем Дигга"
INDEX 01 00:00:00
FILE "06 Всё.wav" WAVE
TRACK 06 AUDIO
TITLE "Всё"
PERFORMER "Рем Дигга"
INDEX 01 00:00:00
FILE "07 Шмарина.wav" WAVE
TRACK 07 AUDIO
TITLE "Шмарина"
PERFORMER "Рем Дигга"
INDEX 01 00:00:00
FILE "08 Чёртополох.wav" WAVE
TRACK 08 AUDIO
TITLE "Чёртополох"
PERFORMER "Рем Дигга"
INDEX 01 00:00:00
FILE "09 Мёд при уч. Искра.wav" WAVE
TRACK 09 AUDIO
TITLE "Мёд при уч. Искра"
PERFORMER "Рем Дигга"
INDEX 01 00:00:00
FILE "10 Тайна при уч. Guf.wav" WAVE
TRACK 10 AUDIO
TITLE "Тайна при уч. Guf"
PERFORMER "Рем Дигга"
INDEX 01 00:00:00
FILE "11 Так надо.wav" WAVE
TRACK 11 AUDIO
TITLE "Так надо"
PERFORMER "Рем Дигга"
INDEX 01 00:00:00
FILE "12 Она (черничная версия).wav" WAVE
TRACK 12 AUDIO
TITLE "Она (черничная версия)"
PERFORMER "Рем Дигга"
INDEX 01 00:00:00
FILE "13 Вильям.wav" WAVE
TRACK 13 AUDIO
TITLE "Вильям"
PERFORMER "Рем Дигга"
INDEX 01 00:00:00
FILE "14 За плечом при уч. Маринесса.wav" WAVE
TRACK 14 AUDIO
TITLE "За плечом при уч. Маринесса"
PERFORMER "Рем Дигга"
INDEX 01 00:00:00
FILE "15 Индия при уч.InDika.wav" WAVE
TRACK 15 AUDIO
TITLE "Индия при уч.InDika"
PERFORMER "Рем Дигга"
INDEX 01 00:00:00

pb.wtf



Скачать Рем Дигга - Черника через торрент https://pic1.kartinco.top/images/111/1u9sjgticq.jpg Скачать, смотреть онлайн Рем Дигга - Черника бесплантно в хорошем качестве ТреклистКабардинкаСинбадВеснаЧерникаМузыка дождя при уч. Nellena (Yashar Gasanov mix)Всё =Шмарина8.Чёртополох9.Мёд при уч. ... 10 10 3
Торрент: Зарегистрирован [2017-11-27 08:22] · скачан: 5 раз
Статус: √ проверено
Размер: 360 MB
Как cкачать? Как скачать Рем Дигга - Черника через торрент | UTorrent

28-11-2019 20:33  

Отключить всю рекламу на сайте

27-11-2017 08:53 Рем Дигга - Черника Скачать торрент  

а"это"ещё куда? pb.wtf



    Дорогой пользователь! Огромная просьба, поблагодарите релизера, оцените раздачу и оставьте свои комментарий, если Вы скачали Рем Дигга - Черника через торрент бесплатно!
    Комментировать посты могут только пользователи прошедшие не сложную регистрацию
    Показать сообщения:    

    Рем Дигга - Черника через торрент
    Скачать бесплатно Рем Дигга - Черника
    Рем Дигга - Черника скачать торрент
    Рем Дигга - Черника смотреть онлайн
    Cкачать фильм Рем Дигга - Черника бесплатно
    Рем Дигга - Черника скачать торрент в хорошем качестве
    Рем Дигга - Черника смотреть онлайн бесплатно в хорошем качестве


    Вы не можете начинать темы
    Вы не можете отвечать на сообщения
    Вы не можете редактировать свои сообщения
    Вы не можете удалять свои сообщения
    Вы не можете голосовать в опросах
    Вы не можете прикреплять файлы к сообщениям
    Вы можете скачивать файлы