2 сезон

iTunes

WEBRip

1

2 сезон

iTunes

1 сезон

1 сезон

RePack

30

Ultimate

ВАЖНО

ИГРА 18+

pack

RePack

MK11
pack

Легкие деньги

RePack

jed

RePack

fifa19

RePack

RDR2

RePack

NEED FOR SPEED™ PAYBACK

4 сезон

9 сезон

Бесстыжие 9 сезон

Все сериалы

все сериалы на PB.wtf

RePack

FAR CRY 5

Anonymous, добрый вечер, мы не успеваем собрать деньги на оплату серверов за февраль, помогите нам пожалуйста в это трудное время. В качестве благодарности мы отключим Вам всю рекламу на сайте (укажите свой ник в строку Ваше имя)!

×
  
Magnet ссылка

Жеребенок (Владимир Фетин) [1959, СССР, драма, DVDRip от AVP Studio] pb.wtf

Жеребенок через торрент pb.wtf

Размер: 743 MB | Добавлен: 3 года 3 мес. назад | Торрент скачан:19 раз
Скачать  

27-11-2017 10:54 Жеребенок Скачать торрент  

Жеребенок
Страна: СССР
Производство: Ленфильм

Жанр: драма
Год выпуска: 1959
Продолжительность: 00:39:28

Перевод: Не требуется
Cубтитры: нет
Оригинальная аудиодорожка: русский

Режиссер: Владимир Фетин

В ролях:
Евгений Матвеев, Леонид Пархоменко, Галина Карелина, Сергей Полежаев, Аркадий Трусов...
Об актёрах подробней

Описание:
По рассказу М. Шолохова.
В одном из эскадронов Красной Армии у лошади бойца Трофима родился жеребёнок. "Пристрелить!" - приказал командир эскадрона. Но не поднялась у Трофима рука на беззащитное животное. Так и остался стригунок при эскадроне. Потом жеребёнок отстал. Лишь на следующее утро он вместе с белоказаками догнал своих. Услышав зов матери, жеребёнок поплыл через разделяющую их реку и начал тонуть. Трофим бросился его спасать. Когда счастливый боец выбрался с жеребёнком на берег, его настигла пуля белого офицера.
Творческая мастерская Г. Козинцева

Источник: DVD5 R5
Качество видео: DVDRip
Формат видео: AVI

Видео: 704х528 (4:3), 25 fps, XviD ~ 2430 kbps avg, 0.261 bit/pixel
Аудио: 48 kHz, Dolby Digital AC3 2.0, 192 kbps

Раздача от:
Общее
Полное имя : Zherebenok.1959.DVDRip_[New-team]_by_AVP_Studio.avi
Формат : AVI
Формат/Информация : Audio Video Interleave
Размер файла : 743 Мбайт
Продолжительность : 39 м. 28 с.
Общий поток : 2632 Кбит/сек
Программа кодирования : VirtualDubMod 1.5.10.3 | www.virtualdub-fr.org || (build 2550/release)
Библиотека кодирования : VirtualDubMod build 2550/release

Видео
Идентификатор : 0
Формат : MPEG-4 Visual
Профиль формата : Advanced Simple@L5
Настройки формата : BVOP1 / Custom Matrix
Параметр BVOP формата : 1
Параметр QPel формата : Нет
Параметр GMC формата : Без точки перехода
Параметр матрицы формата : Выборочная
Идентификатор кодека : XVID
Идентификатор кодека/Подсказка : XviD
Продолжительность : 39 м. 28 с.
Битрейт : 2430 Кбит/сек
Ширина : 704 пикселя
Высота : 528 пикселей
Соотношение сторон : 4:3
Частота кадров : 25,000 кадров/сек
Цветовое пространство : YUV
Субдискретизация насыщенности : 4:2:0
Битовая глубина : 8 бит
Тип развёртки : Прогрессивная
Метод сжатия : С потерями
Бит/(Пиксели*Кадры) : 0.261
Размер потока : 686 Мбайт (92%)
Библиотека кодирования : XviD 73

Аудио
Идентификатор : 1
Формат : AC-3
Формат/Информация : Audio Coding 3
Идентификатор кодека : 2000
Продолжительность : 39 м. 28 с.
Вид битрейта : Постоянный
Битрейт : 192 Кбит/сек
Каналы : 2 канала
Расположение каналов : Front: L R
Частота : 48,0 КГц
Частота кадров : 31,250 кадров/сек (1536 SPF)
Битовая глубина : 16 бит
Метод сжатия : С потерями
Размер потока : 54,2 Мбайт (7%)
Выравнивание : Разделение по промежуткам
Продолжительность промежутка : 40 мс. (1,00 видеокадр)
Время предзагрузки промежутка : 500 мс
pb.wtf



Скачать Жеребенок через торрент http://s019.radikal.ru/i606/1711/c8/243fcdcdc7e1.png Скачать фильм Жеребенок через торрент бесплантно в хорошем качестве Описание:По рассказу М. Шолохова.В одном из эскадронов Красной Армии у лошади бойца Трофима родился жеребёнок. "Пристрелить!" - приказал ... 5 10 1
Info! Золотая раздача, скачанное не засчитывается.
Торрент: Зарегистрирован [2017-11-27 10:54] · скачан: 19 раз
Статус: √ проверено
Размер: 743 MB
Как cкачать? Как скачать Жеребенок через торрент | UTorrent

% Раздел Тема Автор DL S | L
Кино СССР [ 745 MB ] Жеребенок [1959 СССР DVDRip-AVC от AVP Studio] AVP Studio Скачать
1 | 0

28-11-2019 20:33  

Отключить всю рекламу на сайте

    Дорогой пользователь! Огромная просьба, поблагодарите релизера, оцените раздачу и оставьте свои комментарий, если Вы скачали Жеребенок через торрент бесплатно! Внесите свою лепту в развитие PiratBit!
    Комментировать посты могут только пользователи прошедшие не сложную регистрацию
    Показать сообщения:    

    Жеребенок через торрент
    Скачать бесплатно Жеребенок
    Жеребенок скачать торрент
    Жеребенок смотреть онлайн
    Cкачать фильм Жеребенок бесплатно
    Жеребенок скачать торрент в хорошем качестве
    Жеребенок смотреть онлайн бесплатно в хорошем качестве


    Вы не можете начинать темы
    Вы не можете отвечать на сообщения
    Вы не можете редактировать свои сообщения
    Вы не можете удалять свои сообщения
    Вы не можете голосовать в опросах
    Вы не можете прикреплять файлы к сообщениям
    Вы можете скачивать файлы